<?xml version="1.0" standalone="no"?>
<!DOCTYPE svg PUBLIC "-//W3C//DTD SVG 1.1//EN" "http://www.w3.org/Graphics/SVG/1.1/DTD/svg11.dtd" >
<svg xmlns="../../../../www.w3.org/2000/svg.html">
<metadata>Generated by IcoMoon</metadata>
<defs>
<font id="icomoon" horiz-adv-x="1024">
<font-face units-per-em="1024" ascent="960" descent="-64" />
<missing-glyph horiz-adv-x="1024" />
<glyph unicode="&#x20;" horiz-adv-x="512" d="" />
<glyph unicode="&#xe900;" glyph-name="fire" d="M1008.403 110.054c-13.974 24.201-35.707 42.156-61.792 51.333 39.369 27.057 59.493 76.957 46.44 125.664-16.553 61.783-80.292 98.574-142.060 82.022l-20.137-5.396c12.467 31.317 20.171 64.239 22.951 98.34 0.898 11.008-7.298 20.659-18.307 21.557-11.018 0.906-20.661-7.298-21.557-18.307-3.306-40.533-14.469-79.184-33.201-115.016l-97.898-26.233c1.435 9.020 2.203 18.171 2.203 27.43 0 32.116-8.6 50.93-16.913 69.123-9.491 20.772-19.306 42.247-19.306 92.105 0 7.974-4.738 15.188-12.054 18.355-7.315 3.166-15.816 1.688-21.632-3.775-19.2-18.028-31.56-37.55-39.45-56.124-5.888 8.19-13.036 16.135-21.707 23.334-20.395 16.93-23.769 34.418-12.027 62.372 3.193 7.605 1.393 16.387-4.536 22.122-5.929 5.733-14.764 7.238-22.26 3.791-40.393-18.586-62.706-45.088-74.749-71.274 0.329 2.097 0.72 4.217 1.178 6.364 1.973 9.213-2.753 18.555-11.348 22.422-8.593 3.871-18.72 1.21-24.308-6.376-48.208-65.437-66.988-116.589-66.988-182.438 0-9.257 0.768-18.41 2.203-27.43l-97.874 26.225c-22.412 42.97-34.239 91.185-34.239 140.003 0 54.228 13.932 84.712 30.063 120.015 18.427 40.323 38.939 85.207 44.752 170.33 38.929-50.536 52.982-103.53 57.571-142.288 1.053-8.914 7.921-16.032 16.79-17.411 8.871-1.379 17.572 3.323 21.28 11.498 20.475 45.114 48.613 82.722 83.628 111.788 33.894 28.133 53.468 59.127 59.837 94.755 3.338 18.673 2.929 38.388-1.289 59.537 61.247-40.342 96.573-97.427 105.209-170.241 8.008-67.502-10.776-124.172-10.955-124.704-3.043-8.911 0.546-18.739 8.614-23.596 8.066-4.852 18.43-3.425 24.88 3.434 3.572 3.796 73.204 79.35 78.45 193.789 32.031-50.396 53.373-95.515 67.082-141.017 3.188-10.571 14.341-16.565 24.921-13.379 10.575 3.186 16.563 14.345 13.377 24.917-20.393 67.681-55.956 133.794-115.316 214.375-5.589 7.59-15.715 10.248-24.308 6.376-8.593-3.868-13.321-13.207-11.349-22.423 11.057-51.669 6.55-103.294-13.389-153.695 0.043 12.401-0.563 25.511-2.103 39.067-8.103 71.344-44.302 168.603-170.742 226.78-7.496 3.444-16.333 1.942-22.26-3.794-5.931-5.732-7.731-14.517-4.536-22.123 28.6-68.087 19.13-115.126-31.669-157.287-26.057-21.63-48.708-47.326-67.7-76.752-13.565 46.235-40.044 99.264-90.721 146.844-5.813 5.46-14.316 6.942-21.63 3.776-7.32-3.168-12.056-10.379-12.056-18.355 0-110.042-21.731-157.597-42.745-203.581-17.321-37.902-33.681-73.704-33.681-136.637 0-43.459 8.289-86.508 24.175-126.59l-20.212 5.417c-61.78 16.558-125.51-20.241-142.064-82.022-13.051-48.705 7.072-98.604 46.44-125.664-26.083-9.177-47.818-27.134-61.791-51.333-15.491-26.832-19.607-58.093-11.587-88.020s27.213-54.943 54.043-70.434c17.875-10.32 37.708-15.59 57.809-15.59 10.074 0 20.219 1.324 30.211 4.002l365.935 98.053 365.937-98.053c9.993-2.678 20.132-4.002 30.208-4.002 20.099 0 39.936 5.272 57.808 15.59 26.831 15.491 46.027 40.506 54.043 70.434 8.015 29.93 3.898 61.191-11.593 88.023zM861.343 330.438c40.47 10.836 82.227-13.264 93.075-53.738 5.255-19.61 2.557-40.088-7.591-57.668-10.15-17.58-26.54-30.155-46.145-35.408l-680.364-182.303c12.269 25.124 15.070 53.489 7.762 80.758-7.308 27.271-23.914 50.432-47.101 66.057l680.364 182.303zM378.94 351.444c0 38.236 7.187 70.153 24.883 104.646 10.332-40.588 33.908-66.159 35.381-67.726 6.432-6.84 16.748-8.247 24.81-3.436 8.061 4.813 11.677 14.623 8.709 23.532-1.085 3.258-21.738 67.678 22.958 113.169 1.937-22.052 12.87-41.434 32.754-57.945 25.405-21.084 32.341-53.002 34.186-66.572 0.302-5.28 0.799-8.533 0.899-9.144 1.683-10.387 11.11-17.719 21.608-16.708 10.476 0.981 18.401 9.916 18.123 20.434-0.014 0.579-0.131 4.084-0.835 9.617-0.466 10.822 0.329 32.689 11.088 56.504 4.627-24.067 11.918-40.016 18.248-53.868 7.718-16.889 13.293-29.092 13.293-52.5 0-13.397-1.997-26.513-5.876-39.13l-127.177-34.079-127.177 34.079c-3.881 12.617-5.876 25.733-5.876 39.127zM69.567 276.7c10.845 40.474 52.605 64.579 93.075 53.738l272.080-72.905-108.18-28.986-144.906 38.828c-10.673 2.862-21.637-3.471-24.495-14.141-2.86-10.668 3.472-21.634 14.142-24.492l77.991-20.898-108.176-28.986-17.791 4.768c-40.478 10.842-64.585 52.599-53.739 93.075zM78.039-13.759c-17.579 10.15-30.154 26.539-35.408 46.147s-2.558 40.088 7.592 57.667c10.15 17.58 26.537 30.153 46.146 35.408 6.548 1.754 13.191 2.621 19.793 2.621 13.167 0 26.165-3.456 37.874-10.213 17.579-10.15 30.157-26.539 35.41-46.145 5.253-19.608 2.558-40.088-7.591-57.668-10.15-17.579-26.539-30.155-46.146-35.408-19.609-5.251-40.090-2.557-57.669 7.591zM812.962 118.711c-7.689-10.97-13.484-23.31-17.055-36.632-7.306-27.269-4.506-55.634 7.764-80.758l-214.409 57.45 223.7 59.94zM981.356 32.387c-5.255-19.608-17.83-35.997-35.408-46.147-17.584-10.148-38.062-12.846-57.67-7.591-19.606 5.253-35.994 17.83-46.143 35.408-10.15 17.58-12.846 38.060-7.591 57.668 5.253 19.608 17.826 35.995 35.405 46.145 11.709 6.758 24.707 10.213 37.876 10.213 6.603 0 13.245-0.87 19.794-2.621 19.61-5.255 35.995-17.828 46.145-35.408 10.15-17.579 12.846-38.059 7.593-57.667zM487.549 172.308l-177.72-47.619c-10.67-2.86-17.002-13.826-14.141-24.492 2.394-8.936 10.474-14.829 19.306-14.829 1.712 0 3.454 0.222 5.188 0.688l177.722 47.621c10.667 2.86 16.998 13.826 14.141 24.492-2.859 10.668-13.829 17.002-24.496 14.14zM605.396 203.884c-10.67-2.86-17.002-13.826-14.141-24.494 2.393-8.934 10.472-14.829 19.304-14.829 1.712 0 3.456 0.224 5.188 0.689l236.96 63.491c10.668 2.86 17 13.826 14.14 24.494s-13.824 17-24.492 14.14l-236.959-63.491zM817.609 567.789c-3.738-3.719-5.859-8.88-5.859-14.159 0-5.26 2.121-10.4 5.859-14.14 3.721-3.721 8.863-5.861 14.14-5.861 5.26 0 10.399 2.138 14.14 5.861 3.717 3.739 5.859 8.881 5.859 14.14 0 5.279-2.14 10.419-5.859 14.159-3.721 3.719-8.881 5.84-14.14 5.84-5.277 0-10.438-2.121-14.14-5.84z" />
<glyph unicode="&#xe901;" glyph-name="globe" d="M900.672 210.106c43.93 71.571 67.123 153.923 67.008 237.894v0.016c0.115 83.971-23.078 166.327-67.008 237.892l-0.25 0.391c-40.755 66.422-97.862 121.285-165.862 159.345s-144.63 58.044-222.558 58.044c-77.928 0-154.555-19.984-222.558-58.043s-125.11-92.92-165.864-159.343l-0.253-0.396c-43.819-71.615-67.007-153.94-67.007-237.898s23.187-166.28 67.005-237.896l0.257-0.403c40.754-66.419 97.861-121.28 165.863-159.341 68.003-38.054 144.628-58.042 222.556-58.042s154.552 19.987 222.558 58.042c68 38.061 125.107 92.922 165.856 159.347l0.256 0.39zM570.246 70.426c-8.683-8.378-18.677-15.283-29.587-20.435-8.955-4.256-18.745-6.464-28.659-6.464s-19.704 2.208-28.659 6.464c-20.762 10.605-38.534 26.246-51.692 45.491-26.874 38.829-46.788 82.042-58.856 127.699 46.355 2.848 92.758 4.301 139.208 4.358 46.429 0 92.835-1.453 139.212-4.358-6.675-23.475-15.020-46.445-24.963-68.736-13.093-31.347-32.108-59.872-56.004-84.019v0zM108.412 422.407h183.798c1.196-51.286 6.755-102.378 16.616-152.724-50.243-4.416-100.358-10.49-150.344-18.214-29.271 52.512-46.381 110.93-50.070 170.938zM158.481 644.546c49.967-7.743 100.099-13.817 150.397-18.221-9.881-50.34-15.452-101.43-16.653-152.717h-183.814c3.688 60.008 20.799 118.424 50.069 170.939h0.001zM453.754 825.59c8.683 8.379 18.677 15.281 29.587 20.435 8.955 4.255 18.745 6.463 28.659 6.463s19.704-2.208 28.659-6.463c20.762-10.605 38.534-26.244 51.692-45.489 26.874-38.833 46.788-82.043 58.855-127.7-46.355-2.852-92.757-4.305-139.206-4.359-46.43 0.001-92.835 1.454-139.216 4.36 6.68 23.475 15.022 46.444 24.966 68.733 13.092 31.347 32.108 59.875 56.003 84.020zM915.59 473.607h-183.802c-1.197 51.286-6.752 102.378-16.614 152.722 50.246 4.421 100.358 10.494 150.342 18.217 29.274-52.515 46.387-110.93 50.074-170.939zM360.321 273.664c-10.013 48.986-15.668 98.761-16.899 148.743h337.16c-1.216-49.981-6.861-99.757-16.864-148.743-50.519 3.315-101.091 5.005-151.718 5.075-50.591 0-101.151-1.69-151.679-5.075zM663.68 622.349c10.010-48.984 15.667-98.76 16.896-148.742h-337.16c1.22 49.982 6.865 99.758 16.868 148.744 50.516-3.315 101.088-5.005 151.716-5.073 50.59 0 101.15 1.69 151.679 5.071v0zM731.776 422.407h183.814c-3.686-60.008-20.8-118.426-50.074-170.938-49.965 7.744-100.096 13.818-150.394 18.221 9.882 50.34 15.45 101.431 16.653 152.717zM834.822 691.67c-43.686-6.303-87.507-11.293-131.456-14.971-7.898 29.409-18.086 58.154-30.47 85.973-11.302 25.601-25.53 49.809-42.39 72.144 81.487-24.991 152.995-75.091 204.316-143.146zM225.988 734.019c46.745 46.789 104.253 81.398 167.484 100.791-0.959-1.242-1.946-2.429-2.892-3.698-32.5-46.787-56.175-99.12-69.853-154.42-43.951 3.722-87.8 8.716-131.548 14.979 11.283 14.945 23.581 29.094 36.808 42.349zM189.18 204.346c43.687 6.304 87.505 11.296 131.454 14.97 7.899-29.408 18.086-58.157 30.468-85.971 11.306-25.6 25.53-49.811 42.392-72.147-81.488 24.992-152.996 75.091-204.314 143.149v0zM798.010 161.997c-46.739-46.79-104.25-81.402-167.482-100.794 0.959 1.242 1.946 2.432 2.892 3.699 32.501 46.784 56.175 99.123 69.852 154.419 43.955-3.718 87.802-8.717 131.552-14.976-11.283-14.944-23.584-29.094-36.813-42.349v0z" />
<glyph unicode="&#xe902;" glyph-name="heart" d="M489.218-11.776c6.016-6.144 14.208-9.557 22.784-9.557s16.768 3.413 22.784 9.557l409.342 414.763c106.283 107.648 106.283 282.88 0 390.571-51.627 52.309-120.276 81.109-193.364 81.109s-141.696-28.8-193.323-81.067l-45.44-46.080-45.44 46.037c-51.627 52.309-120.277 81.109-193.323 81.109-73.088 0-141.739-28.8-193.366-81.109-106.283-107.691-106.283-282.923 0-390.528l409.344-414.805zM125.399 748.629c39.509 39.979 92.032 62.037 147.797 62.037 55.808 0 108.288-22.059 147.755-62.080l68.224-69.12c11.989-12.16 33.536-12.16 45.525 0l68.224 69.163c39.595 39.979 92.075 62.037 147.84 62.037 55.808 0 108.286-22.059 147.796-62.037 81.792-82.901 81.792-217.771 0-300.715l-386.558-391.723-386.603 391.765c-81.792 82.859-81.792 217.771 0 300.672z" />
<glyph unicode="&#xe903;" glyph-name="hiking" d="M152-4h42.533c8.904-34.466 40.259-60 77.467-60h150.001c11.046 0 19.999 8.953 19.999 20s-8.953 20-19.999 20h-70.001v99.999c0 88.224 71.776 160 160 160 88.417 0 160-71.52 160-160v-99.999h-70.001c-11.044 0-19.999-8.955-19.999-20 0-11.047 8.955-20 19.999-20h150.001c37.209 0 68.564 25.533 77.467 60h42.534c44.111 0 79.998 35.888 79.998 80v132c0 70.403-52.248 128.812-119.999 138.547v275.985c34.466 8.904 60 40.26 60 77.467v60c0 44.113-35.888 80.001-80 80.001h-160v40c0 44.112-35.888 80-80 80h-119.999c-44.112 0-80-35.888-80-80v-40h-160c-44.112 0-80-35.888-80-80.001v-60c0-37.207 25.534-68.564 60-77.467v-275.985c-67.754-9.735-120-68.144-120-138.547v-132c0-44.112 35.888-80 80-80zM232.001 620h559.998v-52c0-55.139-44.86-99.999-99.999-99.999h-100v39.999c0 11.047-8.957 20-20 20h-119.999c-11.047 0-20-8.953-20-20v-39.999h-100c-55.139 0-99.999 44.86-99.999 99.999v52zM672 800v-140h-320v140h320zM552.001 448c0-22.055-17.946-40.001-40.001-40.001s-40.001 17.946-40.001 40.001v40.001h80.002v-40.001zM512 276c-65.352 0-123.482-31.51-160-80.133v232.132h82.533c8.904-34.466 40.259-60 77.467-60s68.564 25.533 77.467 60h82.533v-231.946c-37.366 49.568-95.382 79.947-160 79.947zM912 208v-132c0-22.055-17.944-39.999-39.999-39.999h-40.001v269.988c45.59-9.293 80-49.696 80-97.988zM791.999 16c0-22.055-17.944-39.999-39.999-39.999h-39.999c0 11.918 0 440.931 0 453.451 31.133 4.475 58.979 19.226 79.998 40.702v-454.154zM852 759.999v-60c0-22.055-17.944-39.999-40.001-39.999h-99.999v140h99.999c22.057 0 40.001-17.944 40.001-40.001zM412 880c0 22.056 17.944 40 40.001 40h119.999c22.057 0 40.001-17.944 40.001-40v-40h-200.001v40zM172 700v60c0 22.057 17.944 40.001 40.001 40.001h99.999v-140h-99.999c-22.057 0-40.001 17.944-40.001 39.999zM311.999 429.452v-453.451h-39.999c-22.055 0-39.999 17.944-39.999 39.999v454.154c21.018-21.477 48.865-36.227 79.998-40.702zM112 208c0 48.292 34.41 88.695 80 97.988v-269.988h-40c-22.056 0-40 17.944-40 39.999v132zM592 136.001c0 11.046-8.957 19.999-20 19.999h-119.999c-11.047 0-20-8.953-20-19.999s8.953-20 20-20h119.999c11.044 0 20 8.953 20 20zM512-64c11.046 0 20 8.955 20 20s-8.955 20-20 20c-11.046 0-20-8.955-20-20s8.955-20 20-20z" />
<glyph unicode="&#xe904;" glyph-name="hiking-2" d="M170.667 644.267h-34.133c-9.426 0-17.067-7.641-17.067-17.067s7.641-17.067 17.067-17.067h34.133c9.426 0 17.067 7.641 17.067 17.067s-7.641 17.067-17.067 17.067zM733.867 763.733c0-56.554 45.846-102.4 102.4-102.4s102.4 45.846 102.4 102.4c0 56.554-45.846 102.4-102.4 102.4-56.53-0.056-102.344-45.869-102.4-102.4zM836.267 832c37.704 0 68.267-30.564 68.267-68.267s-30.563-68.267-68.267-68.267c-37.702 0-68.267 30.565-68.267 68.267s30.565 68.267 68.267 68.267zM853.333 918.886v15.514c0 9.426-7.641 17.067-17.067 17.067s-17.067-7.641-17.067-17.067v-15.514c0-9.426 7.641-17.067 17.067-17.067s17.067 7.641 17.067 17.067zM819.2 608.579v-15.514c0-9.424 7.641-17.067 17.067-17.067s17.067 7.642 17.067 17.067v15.514c0 9.426-7.641 17.067-17.067 17.067s-17.067-7.641-17.067-17.067zM1006.93 780.8h-15.514c-9.426 0-17.067-7.641-17.067-17.067s7.641-17.067 17.067-17.067h15.514c9.426 0 17.067 7.641 17.067 17.067s-7.641 17.067-17.067 17.067zM681.114 746.667c9.426 0 17.067 7.641 17.067 17.067s-7.641 17.067-17.067 17.067h-15.514c-9.426 0-17.067-7.641-17.067-17.067s7.641-17.067 17.067-17.067h15.514zM969.003 896.478c-6.665 6.663-17.468 6.663-24.132 0l-10.957-10.957c-4.879-4.881-6.339-12.22-3.698-18.597 2.642-6.376 8.863-10.535 15.764-10.536 8.533 0 11.435 4.369 23.023 15.957 6.663 6.665 6.663 17.468 0 24.132zM703.531 630.987c6.665-6.663 17.468-6.663 24.132 0l10.957 10.957c6.468 6.697 6.374 17.341-0.208 23.924s-17.227 6.676-23.924 0.208l-10.957-10.957c-6.663-6.665-6.663-17.468 0-24.132zM958.056 666.076c-6.697 6.468-17.341 6.374-23.924-0.208s-6.676-17.227-0.208-23.924c9.83-9.83 13.926-15.957 23.023-15.957 6.902 0.002 13.124 4.159 15.764 10.535 2.642 6.376 1.181 13.716-3.698 18.598l-10.957 10.957zM727.656 896.476c-6.697 6.468-17.341 6.375-23.924-0.208s-6.676-17.228-0.208-23.924c9.83-9.83 13.926-15.957 23.023-15.957 6.902 0.002 13.124 4.16 15.764 10.536 2.642 6.376 1.181 13.716-3.698 18.597l-10.957 10.957zM1006.933 12.798c-210.62 0-197.393-1.348-203.742 3.14l-101.751 72.738c-8.67 6.173-19.053 9.479-29.696 9.455h-43.469c4.198 11.759 3.14 9.609 3.14 93.508l92.86 162.492h155.75l112.094-196.267c2.944-5.449 8.61-8.875 14.804-8.951s11.942 3.209 15.020 8.583c3.077 5.376 3.004 11.996-0.196 17.299l-190.020 332.646c-6.098 10.617-17.415 17.154-29.657 17.133-12.244-0.022-23.538-6.598-29.599-17.236l-141.005-246.886v283.307c16.724 17.056 21.538 42.503 12.204 64.49-9.335 21.989-30.985 36.198-54.871 36.016h-128.683l-94.549 94.549c-16.341 16.205-38.497 25.18-61.508 24.917-0.749 2.072-1.628 4.096-2.628 6.059 34.799 41.775 34.132 102.631-1.574 143.633s-95.894 50.026-142.055 21.298-64.645-86.713-43.627-136.856h-62.976c-28.277 0-51.2-22.922-51.2-51.2v-51.2c0.037-12.14 6.541-23.34 17.067-29.389v-209.545c0-28.276 22.923-51.2 51.2-51.2v-426.667h-51.2c-9.426 0-17.067-7.641-17.067-17.067s7.641-17.067 17.067-17.067h223.232c14.954 0.009 29.157 6.555 38.878 17.92l81.92 95.573c3.284 3.756 8.016 5.931 13.005 5.973 323.157 0 300.919 1.519 307.507-3.14l101.751-72.738c8.67-6.173 19.053-9.479 29.696-9.455h193.877c9.426 0 17.067 7.641 17.067 17.067s-7.641 17.067-17.067 17.067zM802.133 490.392l58.385-102.127h-116.719l58.334 102.127zM568.047 103.371c-3.152 3.123-4.902 7.392-4.847 11.827v409.6c11.383-0.732 22.811-0.394 34.133 1.007v-410.607c-0.036-6.926-4.253-13.145-10.675-15.737-6.422-2.594-13.776-1.050-18.611 3.91zM607.795 601.718c6.885-7.912 8.311-19.197 3.615-28.573-4.698-9.376-14.592-14.99-25.050-14.213h-23.159v51.2c27.597 0 35.294 1.809 44.595-8.431v0.017zM529.067 610.132v-51.2h-83.285c-17.34 0.64-33.487 8.989-44.032 22.767l32.29 40.277 1.894-1.894c6.385-6.344 15.012-9.919 24.013-9.95h69.12zM409.754 646.262l-32.273-40.294-24.064 24.064c-4.878 4.89-12.22 6.357-18.603 3.721-6.383-2.639-10.545-8.863-10.547-15.77v-161.451h-34.133v209.545c10.525 6.048 17.031 17.249 17.067 29.389v33.929c12.819-0.497 24.992-5.762 34.133-14.763l68.42-68.369zM85.333 575.998c-18.851 0-34.133 15.281-34.133 34.133v51.2h204.8v-51.2c0-18.852-15.281-34.133-34.133-34.133h-136.533zM216.235 917.332c29.295-0.018 56.015-16.744 68.83-43.087s9.484-57.689-8.585-80.749c-13.175 5.82-10.462 4.369-123.87 4.369-15.809 23.512-17.365 53.824-4.047 78.831s39.339 40.632 67.672 40.636zM34.133 746.665c0 9.426 7.641 17.067 17.067 17.067h204.8c9.426 0 17.067-7.641 17.067-17.067v-51.2h-238.933v51.2zM51.2 456.532v94.822c10.331-6.142 22.114-9.419 34.133-9.489v-34.133c0-9.426 7.641-17.067 17.067-17.067s17.067 7.641 17.067 17.067v34.133h68.267v-34.133c0-9.426 7.641-17.067 17.067-17.067s17.067 7.641 17.067 17.067v34.133c12.020 0.070 23.803 3.347 34.133 9.489 0-102.281 0.956-97.792-2.27-103.27-3.029-5.318-8.677-8.607-14.797-8.619h-170.667c-9.426 0-17.067 7.641-17.067 17.067zM262.537 411.305c5.335 3.011 10.228 6.745 14.541 11.093h47.189c47.104-0.056 85.277-38.228 85.333-85.333v-153.6h-87.33l-15.070 120.695c-0.662 18.371-15.753 32.916-34.133 32.905h-34.133c-18.471 0.137-33.65-14.541-34.133-33.007l-15.974-240.060h-86.426v341.333c149.931 0 145.493-1.707 160.137 5.973zM102.4-21.335v51.2h102.4c18.852 0 34.133-15.281 34.133-34.133v-17.067h-136.533zM271.974 6.467c-4.234 26.307-23.429 47.724-49.118 54.801l16.077 241.664h34.133c0.003-0.707 0.048-1.415 0.137-2.116 20.343-162.543 16.93-118.050 16.93-202.684 0.085-17.736 13.74-32.451 31.42-33.86l-49.579-57.805zM324.267 98.132v51.2h102.4c18.852 0 34.133-15.281 34.133-34.133v-17.067h-136.533zM443.733 181.041v156.023c-0.148 52.692-34.83 99.052-85.333 114.074v125.645l27.017-27.017c16.049-15.945 37.741-24.917 60.365-24.969h83.285c0-448.171-1.314-414.157 3.089-426.667h-37.222v17.067c-0.116 31.034-21.151 58.085-51.2 65.843z" />
<glyph unicode="&#xe905;" glyph-name="home" d="M845.758-36.798h-667.519c-38.789 0.168-75.936 15.671-103.333 43.131s-42.822 64.639-42.906 103.428v495.36c0.16 26.259 7.373 51.993 20.883 74.51s32.822 40.991 55.917 53.49l333.122 182.080c21.455 11.679 45.49 17.798 69.919 17.798s48.464-6.119 69.919-17.798l334.082-181.12c23.093-12.499 42.406-30.973 55.914-53.49 13.513-22.517 20.726-48.251 20.886-74.51v-496.32c-0.086-38.9-15.598-76.177-43.135-103.653-27.533-27.476-64.848-42.906-103.748-42.906zM512 869.12c-13.742 0.020-27.271-3.389-39.358-9.92l-334.082-181.44c-12.958-7.177-23.747-17.707-31.235-30.487s-11.4-27.34-11.325-42.153v-495.36c0-21.897 8.698-42.897 24.181-58.38s36.483-24.179 58.379-24.179h667.198c21.844 0.082 42.758 8.819 58.175 24.293 15.413 15.475 24.068 36.426 24.064 58.266v495.36c0.012 14.877-3.994 29.481-11.6 42.267-7.602 12.786-18.522 23.28-31.597 30.373l-333.443 181.12c-12.059 6.642-25.592 10.162-39.358 10.24zM512.004 103.682c-44.544-0.012-87.704 15.466-122.088 43.782-34.385 28.312-57.856 67.699-66.393 111.415-0.696 4.588-0.387 9.269 0.906 13.726 1.293 4.452 3.54 8.573 6.584 12.075s6.812 6.296 11.045 8.196c4.232 1.901 8.826 2.855 13.465 2.806 7.623 0.111 15.036-2.507 20.903-7.377 5.867-4.866 9.802-11.67 11.097-19.186 6.027-28.766 21.769-54.579 44.581-73.11 22.815-18.53 51.311-28.643 80.699-28.643s57.885 10.113 80.699 28.643c22.811 18.53 38.552 44.343 44.581 73.11 1.294 7.516 5.231 14.32 11.096 19.186 5.865 4.87 13.279 7.487 20.902 7.377 4.641 0.049 9.232-0.905 13.468-2.806 4.231-1.901 7.999-4.694 11.043-8.196s5.292-7.623 6.586-12.075c1.29-4.456 1.602-9.138 0.905-13.726-8.589-43.987-32.297-83.583-67.011-111.927-34.718-28.348-78.254-43.655-123.068-43.27z" />
<glyph unicode="&#xe906;" glyph-name="instagram" d="M521.143 682.357c-128 0-230-104-230-230 0-128 102-230 230-230 126 0 229.998 102 229.998 230 0 126-103.997 230-229.998 230zM521.143 302.357c-82 0-150 66-150 150 0 82 66 148 150 148 82 0 148-66 148-148 0-84-66-150-148-150zM813.144 690.357c0 30-23.998 54-54.001 54-30 0-54-24-54-54s24-54 54-54c30.003 0 54.001 24 54.001 54zM965.142 636.357c-4.001 72-19.997 136-72.002 188-51.997 52-115.997 68-187.998 72-73.999 4-296 4-370 0-72-4-134-20-188-72-52-52-68-116-72-188-4-74-4-296 0-370 4-72 20-133.998 72-187.999 54-51.997 116-68.001 188-72.002 74-4.001 296-4.001 370 0 72 4.001 136 20.005 187.998 72.002 52.005 54.001 68.001 115.999 72.002 187.999 4.001 74 4.001 296 0 370zM869.142 188.357c-14-40.002-46-69.998-83.997-86.001-60.002-23.998-200.002-18-264.002-18-66 0-206-5.998-264 18-40 16.004-70 46-86 86.001-24 57.999-18 198-18 264 0 64-6 204 18 264 16 38 46 67.999 86 83.999 58 24 198.001 18 264 18 64 0 204 6 264.002-18 37.998-14 68.001-46 83.997-83.999 23.998-60.001 18-200 18-264 0-66 5.998-206-18-264z" />
<glyph unicode="&#xe907;" glyph-name="jeep" d="M596.937 658.618l-81.068 109.397c-4.202 5.67-11.38 8.277-18.243 6.639l-140.003-33.533c-0.056-0.012-0.111-0.017-0.167-0.029-0.056-0.014-0.108-0.036-0.164-0.049l-74.47-17.838c-9.455-2.265-15.283-11.764-13.017-21.219l29.174-121.837c1.087-4.541 3.934-8.465 7.912-10.906 2.792-1.713 5.982-2.598 9.207-2.598 1.369 0 2.746 0.16 4.099 0.486l74.651 17.881c0.003 0 0.007 0 0.010 0.003 0.003 0 0.009 0.002 0.010 0.002l192.026 46c5.748 1.376 10.419 5.547 12.442 11.1s1.12 11.752-2.4 16.5zM329.12 605.467l-20.977 87.598 40.402 9.677 20.992-87.595-40.417-9.68zM403.777 623.35l-20.992 87.593 111.73 26.757 58.284-78.652-149.023-35.698zM819.837 401.401c-1.809 7.557-4.775 14.718-8.82 21.284-5.098 8.277-15.947 10.856-24.221 5.751-8.276-5.1-10.853-15.944-5.751-24.219 2.084-3.383 3.616-7.088 4.559-11.022 2.352-9.796 0.742-19.924-4.526-28.515-5.27-8.591-13.57-14.616-23.364-16.961-9.795-2.343-19.924-0.734-28.512 4.541-8.588 5.272-14.609 13.57-16.957 23.383-2.35 9.793-0.744 19.915 4.523 28.501 5.27 8.586 13.568 14.606 23.368 16.951 9.457 2.263 15.287 11.762 13.022 21.219-2.261 9.453-11.766 15.287-21.217 13.022-18.947-4.535-34.992-16.176-45.179-32.777-10.191-16.608-13.298-36.186-8.752-55.12 4.533-18.942 16.174-34.99 32.773-45.181 11.629-7.137 24.713-10.805 38.019-10.805 5.693 0 11.428 0.671 17.106 2.029 18.946 4.535 34.992 16.181 45.181 32.79 10.187 16.613 13.295 36.195 8.75 55.127zM321.696 282.1c0 0.003-0.003 0.010-0.003 0.012-9.385 39.086-48.817 63.276-87.916 53.919s-63.291-48.788-53.932-87.898c7.997-33.425 37.967-55.965 70.924-55.965 5.603 0 11.295 0.652 16.975 2.012 39.108 9.364 63.314 48.804 53.953 87.921zM259.545 228.42c-20.224-4.842-40.622 7.68-45.464 27.911-4.84 20.233 7.67 40.629 27.889 45.466 2.937 0.703 5.881 1.039 8.779 1.039 17.046 0 32.555-11.65 36.709-28.935 4.84-20.238-7.68-40.637-27.913-45.481zM647.89 547.137c-2.263 9.453-11.764 15.275-21.219 13.020l-85.547-20.489c-9.455-2.268-15.281-11.766-13.020-21.221 1.934-8.076 9.148-13.508 17.106-13.508 1.357 0 2.736 0.16 4.115 0.488l85.545 20.489c9.455 2.266 15.285 11.764 13.020 21.221zM513.637 514.983c-2.266 9.455-11.762 15.273-21.221 13.020l-396.341-94.92c-9.454-2.263-15.284-11.764-13.020-21.219 1.934-8.078 9.148-13.508 17.106-13.508 1.356 0 2.736 0.159 4.114 0.488l396.342 94.918c9.457 2.266 15.287 11.764 13.020 21.221zM598.374 464.94c-2.265 9.453-11.762 15.276-21.221 13.020l-217.079-51.988c-9.453-2.263-15.283-11.766-13.020-21.221 1.935-8.076 9.148-13.507 17.106-13.507 1.357 0 2.737 0.159 4.115 0.488l217.079 51.987c9.457 2.266 15.287 11.767 13.020 21.221zM1016.458 375.883c-7.977 5.56-18.949 3.599-24.506-4.376l-74.74-107.235-82.13 12.169c12.344 9.861 23.011 21.893 31.52 35.758 18.56 30.246 24.672 65.705 17.451 100.289l71.001 17.014c9.455 2.265 15.283 11.766 13.017 21.221l-19.975 83.389c-2.261 9.453-11.767 15.285-21.217 13.020l-26.11-6.252-26.177 109.286c-7.938 33.229-37.33 57.617-71.494 59.307l-182.791 8.868-63.3 85.458c-15.688 21.122-42.341 30.802-67.895 24.672l-271.766-65.083c-4.541-1.085-8.463-3.934-10.904-7.912-2.444-3.98-3.202-8.765-2.113-13.305l44.906-187.494-41.571-9.955-27.585 115.137c0 0.002 0 0.003 0 0.009l-10.727 44.805c-2.262 9.457-11.766 15.285-21.218 13.022-9.454-2.261-15.284-11.764-13.022-21.217l9.138-38.173-81.874-148.366-44.126-10.566c-4.542-1.087-8.464-3.934-10.906-7.912-2.44-3.98-3.202-8.767-2.114-13.309l34.368-143.493-26.090-6.248c-9.454-2.263-15.282-11.764-13.020-21.217l19.974-83.415c1.934-8.076 9.148-13.508 17.106-13.508 1.356 0 2.736 0.159 4.112 0.488l75.88 18.162c11.018-40.523 39.81-73.062 76.751-89.726l-76.161-36.857-74.088 25.769c-9.18 3.195-19.216-1.661-22.408-10.844-3.194-9.182 1.662-19.217 10.844-22.409l80.975-28.163c1.878-0.652 3.832-0.978 5.784-0.978 2.632 0 5.256 0.589 7.668 1.758l123.094 59.566c0.23-0.002 168.487 0.075 168.487 0.075 4.668 0 9.146 1.855 12.447 5.156l65.896 65.9 107.034-29.715c4.137-1.15 8.545-0.744 12.404 1.128l163.485 79.462 143.072-21.193c6.6-0.985 13.201 1.865 17.021 7.345l80.975 116.181c5.557 7.977 3.598 18.949-4.379 24.508zM917.963 508.79l11.776-49.155-57.213-13.711c-8.364 16.865-20.094 31.713-34.326 43.769l79.763 19.098zM854.984 580.932l-52.557-12.58 1.442 20.221c0.567 7.996 6.187 14.619 14.001 16.485l29.636 7.098 7.477-31.223zM156.416 607.486l17.002-70.968-64.718-15.497 47.716 86.465zM274.546 524.53c4.543 1.085 8.465 3.934 10.907 7.912 2.439 3.98 3.203 8.765 2.113 13.307l-44.906 187.498 254.657 60.986c11.831 2.838 24.161-1.648 31.411-11.409l68.251-92.148c3.14-4.241 8.021-6.847 13.295-7.103l191.104-9.271c17.087-0.843 31.961-12.119 37.647-27.976l-29.343-7.028c-22.828-5.453-39.276-24.842-40.928-48.236l-3.147-44.174c-0.399-5.596 1.894-11.046 6.171-14.674 3.215-2.727 7.258-4.178 11.387-4.178 1.367 0 2.743 0.16 4.098 0.485l75.919 18.174 3.354-14.017-73.236-17.534c-24.68 8.414-51.014 9.655-76.524 3.538-63.346-15.164-106.612-71.851-105.907-135.427l-236.505-56.639c-28.211 57.006-92.442 87.926-155.749 72.764-25.551-6.117-48.479-19.154-66.645-37.818l-78.136-18.71-30.274 126.374 230.985 55.305zM112.71 263.955l-62.114-14.867-11.778 49.181 84.661 20.272c-7.232-17.205-10.944-35.763-10.768-54.586zM274.71 165.067c-6.543-1.572-13.256-2.493-20.007-2.753h-8.117c-45.769 1.833-85.168 34.22-95.854 78.828-0.89 3.724-1.578 7.525-2.048 11.334-3.706 29.505 5.626 59.187 25.608 81.437 13.943 15.541 32.101 26.336 52.518 31.227 51.048 12.228 102.932-15.737 120.677-65.050 0.036-0.096 0.079-0.184 0.113-0.275 1.244-3.468 2.324-7.083 3.203-10.749 13.203-55.165-20.922-110.79-76.092-124zM606.882 204.153l-110.513 30.679c-6.115 1.7-12.67-0.026-17.157-4.514l-68.002-68.004h-68.296c35.47 31.908 53.308 81.289 42.996 130.862l229.806 55.035c12.658-46.659 48.125-81.504 91.406-95.334l-100.239-48.724zM772.871 284.37c-55.146-13.211-110.763 20.922-123.972 76.073-0.896 3.746-1.582 7.543-2.048 11.336-6.537 52.002 27.049 100.432 78.129 112.66 7.95 1.906 16.002 2.855 24.030 2.855 12.547 0 25.030-2.319 36.924-6.922 27.894-10.771 49.65-32.993 59.692-60.971 0.096-0.268 0.198-0.536 0.307-0.794 1.164-3.302 2.176-6.746 3.017-10.25 6.402-26.718 2.016-54.333-12.353-77.754-14.372-23.415-37.002-39.835-63.727-46.234z" />
<glyph unicode="&#xe908;" glyph-name="linkedin" d="M215.385-39.613v643.998h-200.308v-643.998h200.308zM114.154 690.538c64.615 0 116.307 53.847 116.307 118.462 0 62.462-51.692 114.154-116.307 114.154-62.462 0-114.154-51.692-114.154-114.154 0-64.615 51.692-118.462 114.154-118.462zM962.773-39.613h2.15v353.229c0 172.308-38.77 305.846-241.231 305.846-96.923 0-161.538-53.847-189.538-103.385h-2.154v88.307h-191.693v-643.998h200.308v318.767c0 84 15.077 163.692 118.462 163.692s105.538-94.769 105.538-170.154v-312.305h198.157z" />
<glyph unicode="&#xe909;" glyph-name="luggage" d="M644 882c0 9.924 8.076 18 18 18h104.003c9.925 0 18-8.076 18-18v-107.23h59.999v107.23c0 43.010-34.992 78-78 78h-104.003c-43.010 0-78-34.99-78-78v-107.23h60v107.23zM364.676-4.023c-13.108 20.37-20.676 44.485-20.676 70.005v449.768h-274c-38.598 0-70-31.402-70-70v-379.768c0-35.204 26.122-64.41 60-69.274v-30.72c0-16.567 13.432-30.003 30-30.003s30 13.436 30 30.003v29.996l244.676-0.007zM120 405.75c0 16.568 13.433 30 30 30s30-13.432 30-30v-299.773c0-16.567-13.432-29.996-30-29.996s-30 13.429-30 29.996v299.773zM280 623c0 9.924 8.076 18 18 18h46v3.771c0 20.13 4.601 39.204 12.804 56.229h-58.804c-43.010 0-78-34.989-78-78v-47.23h60v47.23zM954.002 714.75h-480.002c-38.598 0-70-31.402-70-70v-578.768c0-35.204 26.122-64.41 60-69.274v-30.72c0-16.567 13.432-30.003 30-30.003s30 13.436 30 30.003v29.996h380.002v-29.996c0-16.567 13.429-30.003 29.996-30.003s30.003 13.436 30.003 30.003v30.72c33.872 4.864 59.999 34.070 59.999 69.274v578.768c0 38.6-31.4 70-69.998 70zM584 105.977c0-16.567-13.433-29.996-30-29.996s-30 13.429-30 29.996v498.774c0 16.568 13.432 30 30 30s30-13.432 30-30v-498.774zM873.999 75.981c-16.567 0-29.996 13.429-29.996 29.996v498.774c0 16.568 13.429 30 29.996 30s30.003-13.432 30.003-30v-498.774c0-16.567-13.436-29.996-30.003-29.996z" />
<glyph unicode="&#xe90a;" glyph-name="menu" d="M0 693.76h1024v-81.92h-1024v81.92zM0 284.16h819.2v-81.92h-819.2v81.92z" />
<glyph unicode="&#xe90b;" glyph-name="museum" d="M512.099 859.817c-36.485 0-65.915-29.631-65.915-65.915s29.43-66.116 65.915-66.116c36.485 0 65.915 29.631 65.915 65.914s-29.43 66.116-65.915 66.116zM512.099 760.643c-18.343 0-33.058 14.715-33.058 33.058s14.916 33.058 33.058 33.058c18.142 0 33.058-14.715 33.058-33.058s-14.715-33.058-33.058-33.058zM957.373 34.973v65.915h-49.386v82.444h-33.058v395.894h33.058v82.444h98.975v148.56h-125.38l-369.487 149.77-366.060-149.77h-128.806v-148.359h98.973v-82.444h33.058v-395.894h-33.058v-82.444h-49.386v-65.915h-66.117v-99.174h1022.59v98.973h-65.917zM874.929 612.284h-132.031v49.386h132.031v-49.386zM578.010 183.332v395.894h33.058v82.444h98.973v-82.444h33.058v-395.894h-33.058v-82.444h-98.973v82.444h-33.058zM281.091 183.533v395.692h33.058v82.645h98.973v-82.444h33.058v-395.894h-33.058v-82.444h-98.973v82.444h-33.058zM149.261 612.485v49.386h132.032v-49.386h-132.032zM248.032 579.226v-395.894h-65.915v395.894h65.915zM446.181 150.475h132.031v-49.386h-132.031v49.386zM446.181 612.284v49.386h132.031v-49.386h-132.031zM545.154 579.226v-395.894h-65.915v395.894h65.915zM742.898 150.274h132.031v-49.386h-132.031v49.386zM776.158 183.332v395.894h65.915v-395.894h-65.915zM50.287 694.728v82.444h102.198l359.61 147.15 362.834-147.15h98.975v-82.444h-923.617zM149.261 150.475h132.032v-49.386h-132.032v49.386zM99.673 68.031h824.845v-33.058h-824.845v33.058zM990.433-30.942h-956.675v33.058h956.675v-33.058z" />
<glyph unicode="&#xe90c;" glyph-name="nature" d="M800 624c61.759 0 112 50.256 112 112s-50.241 112-112 112c-61.759 0-112-50.256-112-112s50.241-112 112-112zM800 816c44.112 0 80-35.888 80-80s-35.888-80-80-80c-44.112 0-80 35.888-80 80s35.888 80 80 80zM816 944h-32v-64h32v64zM664.207 894.416l-22.624-22.63 45.261-45.248 22.624 22.63-45.261 45.248zM656 752h-64v-32h64v32zM686.855 645.49l-45.254-45.256 22.627-22.627 45.254 45.256-22.627 22.627zM816 592h-32v-64h32v64zM913.126 645.485l-22.627-22.627 45.256-45.254 22.627 22.627-45.256 45.254zM1008 752h-64v-32h64v32zM935.755 894.383l-45.256-45.254 22.627-22.627 45.256 45.254-22.627 22.627zM679.504 174.273c30.768 13.679 54.992 37.216 70.352 65.727h178.144c44.112 0 80 35.888 80 80s-35.888 80-80 80c-0.48 0-0.961-0.065-1.44-0.080-7.615 45.377-47.056 80.080-94.56 80.080-24.016 0-46.527-8.832-64-24.719-17.473 15.887-39.984 24.719-64 24.719-6.448 0-12.913-0.64-18.417-1.777l-1.343-0.208-76.24 110.097-133.504-192.833c-17.328-25.039-26.496-54.368-26.496-84.832 0-58.848 34.736-112.304 88.496-136.192l55.504-24.656v-84.847c-9.68-4.961-19.2-10.32-28.336-16.401l-16.816-11.216c-58.496 48.032-132.256 74.865-209.041 74.865-16.864 0-33.439-1.649-49.807-4.111v139.327l72.049 45.856c65.087 41.407 103.951 112.208 103.951 189.36 0 43.36-12.448 85.536-35.92 121.791l-63.039 99.777h50.959c44.112 0 80 35.888 80 80s-35.888 80-80 80c-0.48 0-0.959-0.064-1.44-0.080-7.615 45.376-47.056 80.080-94.56 80.080-24.016 0-46.527-8.832-64-24.72-17.473 15.888-39.984 24.72-64 24.72-47.504 0-86.944-34.704-94.56-80.080-0.48 0.016-0.96 0.080-1.44 0.080-44.112 0-80-35.888-80-80s35.888-80 80-80h84.48l-64.464-99.632c-23.568-36.4-36.016-78.577-36.016-121.936 0-77.152 38.864-147.953 103.951-189.375l72.049-45.841v-145.792c-56.641-14.432-108.688-43.472-151.088-85.888l-31.536-31.536h-57.376v-32h992v32h-57.376l-28.88 28.88c-53.6 53.6-124.863 83.12-200.672 83.12-33.408 0-66.161-5.968-97.072-17.232v70.832l55.504 24.673zM201.136 320.063c-55.808 35.521-89.136 96.225-89.136 162.369 0 37.185 10.672 73.344 30.88 104.561l129.328 199.856 18.48-27.728 26.624 17.744-45.52 68.272-70.608-109.136h-105.184c-26.464 0-48 21.536-48 48s21.536 48 48 48c13.76 0 26.896-5.92 36-16.256l24 21.152c-7.6 8.608-16.864 15.392-27.104 20 4.384 31.072 30.864 55.104 63.104 55.104 20.209 0 38.864-9.472 51.168-26l12.832-17.216 12.832 17.216c12.303 16.528 30.959 26 51.168 26 32.241 0 58.72-24.032 63.104-55.088-10.24-4.624-19.504-11.392-27.104-20l23.999-21.152c9.105 10.32 22.241 16.24 36 16.24 26.464 0 48-21.536 48-48s-21.536-48-48-48h-109.041l94.16-148.992c20.192-31.217 30.88-67.376 30.88-104.561 0-66.159-33.328-126.863-89.136-162.367l-54.864-34.929v76.225l75.312 75.312-22.624 22.624-52.688-52.688v98.753l75.312 75.312-22.624 22.624-52.688-52.688v169.376h-32v-169.376l-52.688 52.688-22.624-22.624 75.312-75.312v-98.753l-52.688 52.688-22.624-22.624 75.312-75.312v-76.225l-54.864 34.912zM127.536-7.088c56.159 56.144 130.833 87.088 210.271 87.088 83.152 0 162.161-35.057 218.385-96h-437.569l8.912 8.912zM899.12-9.743l6.257-6.257h-306.128l-13.568 15.52c-4.656 5.328-9.52 10.416-14.464 15.391l10.208 6.801c41.504 27.663 89.793 42.288 139.648 42.288 67.265 0 130.48-26.192 178.048-73.743zM755.168 422.001l12.832-17.217 12.832 17.217c12.303 16.527 30.959 25.999 51.168 25.999 32.241 0 58.72-24.032 63.104-55.088-10.24-4.625-19.504-11.392-27.104-20l23.999-21.152c9.105 10.32 22.24 16.241 36 16.241 26.464 0 48-21.536 48-48s-21.536-48-48-48h-165.311c3.328 12.384 5.311 25.248 5.311 38.448 0 30.449-9.168 59.776-26.496 84.832l-36.367 52.512c19.231-0.464 37.999-9.632 50.031-25.791zM549.504 203.52c-42.225 18.753-69.504 60.735-69.504 106.928 0 23.904 7.2 46.961 20.801 66.608l107.199 154.832 107.199-154.832c13.617-19.664 20.801-42.704 20.801-66.608 0-46.208-27.279-88.192-69.504-106.943l-42.496-18.881v64.753l75.312 75.312-22.624 22.624-52.688-52.688v169.376h-32v-169.376l-52.688 52.688-22.624-22.624 75.312-75.312v-64.753l-42.496 18.896z" />
<glyph unicode="&#xe90d;" glyph-name="play-market" d="M644.691 503.154l115.385 115.384-540.384 311.538 424.999-426.923zM110.077 955.077c-25-13.462-42.308-38.461-42.308-69.231v-848.076c0-30.771 17.308-55.769 42.308-67.308l492.307 492.308-492.307 492.308zM927.386 520.46l-113.463 65.386-126.921-123.077 126.921-124.999 115.385 65.382c34.615 26.923 34.615 90.384-1.922 117.307zM219.692-4.537l540.384 309.614-115.385 115.385-424.999-424.999z" />
<glyph unicode="&#xe90e;" glyph-name="search" d="M466.76 877.597c-211.575 0-383.922-172.344-383.922-383.917s172.347-384.25 383.922-384.25c90.368 0 173.481 31.667 239.171 84.25l159.918-159.831c8.069-7.736 18.847-12.006 30.029-11.889 11.177 0.113 21.868 4.598 29.778 12.498s12.411 18.58 12.544 29.757c0.128 11.177-4.127 21.965-11.848 30.044l-159.923 159.918c52.628 65.787 84.337 149.028 84.337 239.502 0 211.573-172.431 383.917-384.005 383.917zM466.76 792.262c165.458 0 298.588-133.128 298.588-298.583 0-165.452-133.13-298.915-298.588-298.915-165.457 0-298.588 133.463-298.588 298.915 0 165.454 133.131 298.583 298.588 298.583z" />
<glyph unicode="&#xe90f;" glyph-name="ski" d="M1015.542 824.208l-19.612 3.922c-36.327 7.267-73.122 5.667-107.651-3.922 9.593 34.527 11.19 71.323 3.924 107.652l-3.92 19.609-19.612 3.921c-76.263 15.254-154.628-8.475-209.617-63.467l-231.932-231.931-82.659 82.66 42.419 42.42-148.47 148.472c-35.085 35.085-92.174 35.087-127.259 0-15.811-15.812-25.004-36.475-26.21-58.631-22.157-1.206-42.818-10.396-58.629-26.21-35.087-35.087-35.087-92.174 0-127.261l148.47-148.47 42.42 42.42 82.66-82.661-264.599-264.593c-46.781-46.78-46.781-122.9 0-169.681 24.364-24.363 57.756-37.003 92.444-34.816-2.090-33.206 9.495-67.121 34.817-92.443 46.779-46.78 122.898-46.785 169.681 0l264.6 264.598 172.458-172.458-42.422-42.422 42.422-42.422 42.422 42.422 84.84-84.84 42.418 42.418-84.84 84.84 42.418 42.422 84.84-84.845 42.422 42.422-84.84 84.84 42.422 42.418-42.422 42.422-42.418-42.422-172.462 172.462 231.932 231.931c54.993 54.992 78.717 133.354 63.468 209.617l-3.924 19.607zM174.785 657.813l-106.052 106.052c-11.694 11.694-11.694 30.725 0 42.42 11.72 11.722 30.695 11.722 42.42 0l106.050-106.050-42.418-42.421zM153.574 848.705c-11.72 11.72-11.724 30.695 0 42.419 11.696 11.694 30.725 11.697 42.42 0l106.050-106.050-42.42-42.42-106.050 106.050zM259.625 657.813l42.42 42.419 82.66-82.66-42.42-42.419-82.66 82.66zM77.686 140.874c-23.391 23.392-23.391 61.452 0 84.845l623.791 623.786c35.594 35.595 84.681 53.768 134.754 49.915 3.83-49.759-14.098-98.939-49.914-134.756l-623.79-623.789c-23.391-23.388-61.449-23.388-84.841 0zM854.106 148.173l-42.418-42.418-172.462 172.458 42.422 42.422 172.458-172.462zM913.576 637.404l-623.788-623.789c-23.39-23.388-61.449-23.388-84.841 0-23.391 23.388-23.391 61.448 0 84.84l623.789 623.788c35.82 35.817 85.008 53.742 134.758 49.915 3.83-49.757-14.098-98.937-49.918-134.754z" />
<glyph unicode="&#xe910;" glyph-name="speedometer" d="M511.991 345.714c-18.822 0-34.134-15.312-34.134-34.134s15.312-34.134 34.134-34.134c18.822 0 34.134 15.312 34.134 34.134s-15.312 34.134-34.134 34.134zM846.504 699.113c-92.387 79.872-209.804 123.107-331.318 124.244-282.938 0-515.186-222.618-515.186-511.544v-0.228c0-76.003 16.612-151.095 49.38-219.593 5.688-11.827 17.522-19.339 30.72-19.339h863.801c13.195 0 25.029 7.512 30.72 19.339 32.315 67.811 49.379 143.817 49.379 219.593 0 155.816-71.263 297.216-177.496 387.528zM112.184 277.453h-42.324c-1.82 22.528-1.82 45.512-0.228 68.266h42.552c18.888 0 34.134-15.246 34.134-34.134s-15.246-34.132-34.134-34.132zM477.866 754.181c22.984 1.592 45.738 1.592 68.266-0.228v-32.768c0-18.888-15.246-34.134-34.134-34.134s-34.134 15.246-34.134 34.134v32.996h0.001zM174.762 600.581c14.564 17.294 30.948 33.45 48.242 48.242l23.666-23.666c13.198-13.198 13.198-34.816 0-48.242-13.146-13.146-34.702-13.54-48.244 0l-23.665 23.666zM809.509 234.809c-4.784-18.643-23.874-29.226-41.552-24.531-18.271 4.688-29.25 23.308-24.532 41.555 4.974 19.378 7.512 39.468 7.512 59.756 0 53.582-17.942 102.93-47.84 142.828l-98.954-98.954c6.388-13.348 10.26-28.112 10.26-43.872 0-56.466-45.934-102.403-102.4-102.403s-102.4 45.937-102.4 102.403c0 56.466 45.934 102.4 102.4 102.4 15.76 0 30.524-3.872 43.872-10.26l98.954 98.954c-39.898 29.896-89.245 47.836-142.828 47.836-131.754 0-238.934-107.178-238.934-238.934 0-20.288 2.532-40.378 7.513-59.756 4.71-18.245-6.266-36.864-24.532-41.552-18.222-4.784-36.866 6.29-41.556 24.528-6.422 24.937-9.69 50.758-9.69 76.78 0 169.4 137.8 307.2 307.2 307.2s307.2-137.8 307.2-307.2c0-26.022-3.269-51.846-9.691-76.778zM825.571 576.915c-12.954-12.954-34.026-13.742-48.245 0-13.195 13.426-13.195 35.044 0 48.242l23.442 23.438c0.453-0.456 0.68-0.91 1.134-1.138 17.072-14.792 32.768-30.492 46.877-47.331l-23.208-23.21zM954.368 277.453h-32.768c-18.885 0-34.136 15.247-34.136 34.134s15.25 34.134 34.136 34.134h32.768c0.907-11.151 1.368-22.756 1.368-34.134 0-11.38-0.461-22.758-1.368-34.134z" />
<glyph unicode="&#xe911;" glyph-name="star" d="M1021.322 567.246c-6.742 20.735-25.133 35.415-46.805 37.376l-295.599 26.836-116.822 273.504c-8.625 20.094-28.251 33.063-50.095 33.063s-41.477-12.969-50.047-33.063l-116.823-273.504-295.645-26.836c-21.672-2.001-40.024-16.68-46.805-37.376-6.742-20.735-0.516-43.477 15.875-57.852l223.449-195.933-65.884-290.176c-4.82-21.337 3.461-43.399 21.164-56.196 9.516-6.915 20.696-10.368 31.915-10.368 9.641 0 19.289 2.563 27.907 7.719l254.894 152.409 254.848-152.409c18.696-11.172 42.204-10.149 59.868 2.649 17.704 12.797 25.985 34.859 21.165 56.196l-65.884 290.176 223.449 195.933c16.383 14.375 22.618 37.071 15.875 57.852z" />
<glyph unicode="&#xe912;" glyph-name="tickets" d="M926.478 46.319h-156.037c-11.267 0-21.064 7.721-23.699 18.674-4.847 20.118-22.9 34.256-43.592 34.133-20.623-0.089-38.56-14.135-43.592-34.133-2.639-10.95-12.435-18.671-23.699-18.674h-538.335c-53.863 0-97.525 43.66-97.525 97.526v384.242c0 53.859 43.662 97.523 97.525 97.523h538.331c11.25 0.002 21.043-7.694 23.699-18.627 5.045-19.985 22.979-34.028 43.592-34.133 20.688-0.106 38.731 14.025 43.592 34.133 2.656 10.933 12.448 18.629 23.699 18.627h156.037c53.862 0 97.526-43.66 97.526-97.523v-384.246c0-53.862-43.663-97.522-97.522-97.522zM787.456 95.082h139.022c26.931 0 48.763 21.832 48.763 48.763v384.242c0 26.928-21.832 48.759-48.763 48.759h-139.022c-15.647-32.297-48.422-52.767-84.309-52.661-35.772 0.246-68.359 20.613-84.262 52.661h-521.36c-26.931 0-48.763-21.832-48.763-48.759v-384.246c0-26.931 21.832-48.763 48.763-48.763h521.36c15.899 32.048 48.49 52.415 84.262 52.664 35.895 0.13 68.68-20.347 84.309-52.661zM222.843 576.847c-13.461 0.341-24.099 11.527-23.76 24.989 0.24 9.554 6.041 18.087 14.836 21.824l286.233 112.69c10.216 4.008 21.856 0.696 28.43-8.094 2.516-3.618 5.594-6.81 9.117-9.459 12.65-9.895 29.549-12.465 44.568-6.778 3.591 1.38 6.97 3.25 10.045 5.558 13.182 9.638 20.060 25.694 17.944 41.886-1.57 11.167 4.721 21.957 15.217 26.088l145.357 57.051c49.534 20.029 105.926-3.887 125.955-53.421 0.15-0.364 0.294-0.729 0.437-1.095l31.645-80.409c5.356-12.357-0.324-26.711-12.681-32.063s-26.713 0.326-32.065 12.683c-0.218 0.505-0.42 1.016-0.604 1.534l-31.696 80.458c-4.646 12.042-13.94 21.709-25.795 26.82-11.759 5.185-25.129 5.343-37.007 0.439l-129.853-50.908c-2.079-26.69-15.5-51.208-36.864-67.34-6.711-5.105-14.097-9.256-21.944-12.336-30.423-11.872-64.823-7.17-90.941 12.434-2.543 1.663-4.943 3.538-7.168 5.607l-270.482-106.449c-2.838-1.137-5.866-1.717-8.923-1.71zM528.234 311.583h-309.248c-9.305 0-17.8 5.297-21.894 13.657l-22.382 45.786c-5.911 12.117-0.879 26.733 11.239 32.645s26.735 0.881 32.646-11.24l15.457-32.085h294.034c13.466 0 24.381-10.916 24.381-24.378 0-13.466-10.916-24.381-24.381-24.381h0.147v-0.003zM332.897 227.174c-13.465 0-24.38 10.916-24.38 24.381 0 7.673 3.614 14.899 9.753 19.507l111.763 84.405c10.769 8.079 26.054 5.898 34.133-4.878 8.079-10.769 5.895-26.054-4.878-34.133l-111.763-84.357c-4.195-3.215-9.341-4.949-14.628-4.925zM444.71 311.583c-5.274 0-10.407 1.713-14.63 4.878l-111.91 84.504c-10.771 8.079-12.956 23.364-4.876 34.133 8.079 10.772 23.362 12.957 34.132 4.878l112.152-84.456c10.772-8.079 12.957-23.361 4.878-34.133-4.605-6.137-11.831-9.752-19.507-9.752l-0.239-0.051zM703.147 424.564c-13.466 0-24.381 10.916-24.381 24.381v17.845c0 13.466 10.916 24.381 24.381 24.381s24.381-10.916 24.381-24.381v-17.845c0-13.466-10.916-24.381-24.381-24.381zM703.147 302.66c-13.466 0-24.381 10.916-24.381 24.381v17.845c0 13.466 10.916 24.381 24.381 24.381s24.381-10.916 24.381-24.381v-17.845c0-13.466-10.916-24.381-24.381-24.381zM703.147 180.753c-13.466 0-24.381 10.916-24.381 24.381v17.845c0 13.466 10.916 24.381 24.381 24.381s24.381-10.916 24.381-24.381v-17.845c0-13.462-10.916-24.381-24.381-24.381zM902.096 214.060c-13.466 0-24.378 10.916-24.378 24.378v195.052c0 13.462 10.912 24.378 24.378 24.378s24.381-10.916 24.381-24.378v-195.048c0-13.466-10.916-24.381-24.381-24.381zM804.57 311.583c-13.462 0-24.378 10.916-24.378 24.381v97.526c0 13.462 10.916 24.378 24.378 24.378 13.466 0 24.381-10.916 24.381-24.378v-97.526c0-13.466-10.916-24.381-24.381-24.381z" />
<glyph unicode="&#xe913;" glyph-name="transmission" d="M150 478v183.8c51.7 13.36 90 60.379 90 116.2 0 66.16-53.84 120-120 120s-120-53.84-120-120c0-55.82 38.3-102.84 90-116.2v-427.6c-51.7-13.36-90-60.383-90-116.198 0-66.165 53.84-119.998 120-119.998 66.161 0 120 53.833 120 119.998 0 55.815-38.3 102.839-90 116.198v183.8h184.52c-3.358 19.741-3.365 40.218 0 60.001h-184.52zM874.006 417.8v-89.8c0-16.56 13.436-30 29.996-30s30.003 13.44 30.003 30v333.8c51.697 13.36 90.002 60.379 90.002 116.2 0 66.16-53.84 120-120.005 120-66.158 0-119.998-53.84-119.998-120 0-55.82 38.298-102.84 90.002-116.2v-184l-184.542 0.3c3.304-19.238 3.458-39.992 0.040-60l184.501-0.3zM542 234.216v36.32c-19.738-3.358-40.218-3.364-60.001 0v-36.32c-51.7-13.361-89.999-60.377-89.999-116.2 0-66.158 53.84-119.998 120-119.998s120 53.84 120 119.998c0 55.823-38.3 102.839-89.999 116.2zM512 898c-66.16 0-120-53.84-120-120 0-55.82 38.3-102.84 89.999-116.2v-36.321c19.738 3.358 40.218 3.365 60.001 0v36.321c51.7 13.36 89.999 60.379 89.999 116.2 0 66.16-53.84 120-120 120zM512 328c66.274 0 120 53.726 120 120s-53.726 120-120 120c-66.274 0-120-53.726-120-120s53.726-120 120-120zM903.936 260.5h-59.897c-16.574 0-30.003-13.432-30.003-30v-202.501c0-16.567 13.429-29.996 30.003-29.996 16.567 0 29.996 13.429 29.996 29.996v52.502h27.802c16.538 0 29.996-13.458 29.996-30.003v-22.499c0-16.567 13.436-29.996 30.003-29.996s30.003 13.429 30.003 29.996c-1.573 12.361 7.022 47.828-21.972 81.32 53.292 57.395 12.266 151.18-65.931 151.18zM903.936 140.5c-8.609 0-16.201 0-29.901 0v59.999h29.901c16.545 0 30.003-13.458 30.003-29.996 0-16.545-13.458-30.003-30.003-30.003z" />
<glyph unicode="&#xe914;" glyph-name="traveller" d="M795.742 159.898v54.632c0 9.426-7.642 17.067-17.067 17.067-9.426 0-17.067-7.641-17.067-17.067v-29.739c-11.090 5.632-7.243 3.854-108.58 38.796-18.103 6.241-33.874 17.521-45.611 32.62-5.786 7.441-16.51 8.786-23.95 3s-8.784-16.509-2.999-23.95c8.12-10.447 17.683-19.524 28.358-27.034-35.181-61.053-110.959-86.455-175.981-57.832-8.627 3.796-18.698-0.119-22.496-8.745s0.118-18.698 8.745-22.496c81.504-35.878 176.461-3.663 219.959 73.206 3.227-1.195-6.854 2.306 82.022-28.339v-210.949c0-9.424 7.642-17.067 17.067-17.067 9.426 0 17.067 7.642 17.067 17.067v196.082c27.484-17.869 44.8-48.708 44.8-82.533v-113.55c0-9.424 7.642-17.067 17.067-17.067 9.426 0 17.067 7.642 17.067 17.067v113.551c-0.002 35.727-14.355 68.982-38.402 93.278zM844.8 744.533c-9.426 0-17.067-7.641-17.067-17.067 0-9.424 7.641-17.067 17.067-17.067 14.116 0 25.6-11.484 25.6-25.6v-2.133c0-14.116-11.484-25.6-25.6-25.6h-74.667v88.431c0 118.276-96.227 214.502-214.502 214.502h-134.193c-118.279 0-214.504-96.226-214.504-214.502v-18.031c0-9.424 7.641-17.067 17.067-17.067 9.424 0 17.067 7.642 17.067 17.067v18.031c0 99.456 80.913 180.369 180.369 180.369h134.193c99.458 0 180.371-80.913 180.371-180.369v-88.431h-512c-9.426 0-17.067-7.641-17.067-17.067v-68.267c0-32.983 22.804-60.727 53.47-68.328 0.222-7.849 0.768-15.536 1.616-23.067-22.47 1.761-45.036 3.794-67.338 6.067-40.249 4.099-75.215-27.506-75.215-67.891v-73.293c0-34.883 26.468-64.577 61.867-67.934v-117.39c-24.047-24.296-38.4-57.551-38.4-93.28v-113.551c0-9.424 7.642-17.067 17.067-17.067s17.067 7.642 17.067 17.067v113.551c0 41.979 26.665 79.379 66.353 93.065l72.313 24.933v-231.549c0-9.424 7.641-17.067 17.067-17.067 9.424 0 17.067 7.642 17.067 17.067v244.326c47.512 23.059 74.609 72.651 74.667 119.107 0.010 8.032-5.707 15.2-13.814 16.766-73.957 28.599-116.32 93.466-116.32 178.468v42.865c0 9.426-7.642 17.067-17.067 17.067s-17.067-7.641-17.067-17.067v-14.848c-11.414 6.117-19.2 18.152-19.2 31.983v51.2h441.6c0-116.685 1.398-128.010-4.345-156.568-0.244-0.853-0.432-1.725-0.538-2.623-19.627-91.39-94.937-134.153-160.742-142.824-9.344-1.232-15.921-9.805-14.691-19.152 1.227-9.296 9.754-15.925 19.151-14.689 88.284 11.633 162.813 67.797 186.957 158.539 25.777 1.939 51.744 4.217 77.389 6.832 20.151 2.055 37.62-13.662 37.62-33.934v-73.293c0-20.246-17.444-35.994-37.622-33.935-35.062 3.575-70.68 6.554-105.865 8.858-9.388 0.616-17.529-6.511-18.144-15.915s6.511-17.529 15.915-18.144c34.775-2.277 69.977-5.221 104.629-8.753 40.257-4.103 75.218 27.513 75.218 67.891v73.293c0 40.392-34.982 71.996-75.216 67.891-22.335-2.277-44.928-4.309-67.413-6.074 0.876 7.545 1.428 15.237 1.655 23.062 27.841 6.873 49.468 30.345 53.006 59.909 1.12 9.359-5.56 17.855-14.918 18.975-9.344 1.111-17.855-5.56-18.975-14.918-1.446-12.092-8.793-22.176-18.939-27.597v83.169h128c30.887 0 59.733 23.994 59.733 61.867 0.002 32.937-26.795 59.733-59.732 59.733zM389.709 305.009c-4.417-37.122-29.696-69.019-65.662-81.42-98.765-34.055-97.376-33.106-108.58-38.794v94.553c29.792 2.818 59.817 5.216 89.552 7.105 9.407 0.597 16.55 8.706 15.952 18.111-0.597 9.409-8.704 16.546-18.115 15.951-37.048-2.35-76.361-5.632-111.638-9.228-20.169-2.065-37.618 13.698-37.618 33.935v73.293c0 20.258 17.449 35.98 37.622 33.934 25.574-2.606 51.478-4.881 77.21-6.818 17.188-65.386 61.211-114.514 121.277-140.621zM435.2 582.4c-9.424 0-17.067-7.641-17.067-17.067v-29.867c0-9.424 7.642-17.067 17.067-17.067s17.067 7.642 17.067 17.067v29.867c0 9.426-7.641 17.067-17.067 17.067zM541.867 518.4c9.424 0 17.067 7.642 17.067 17.067v29.867c0 9.426-7.642 17.067-17.067 17.067-9.426 0-17.067-7.641-17.067-17.067v-29.867c0-9.424 7.641-17.067 17.067-17.067zM459.868 436.405c-6.665 6.666-17.471 6.666-24.136 0-6.666-6.665-6.666-17.469 0-24.136 29.179-29.181 76.413-29.184 105.595 0 6.666 6.665 6.666 17.469 0 24.136-6.665 6.666-17.471 6.666-24.136 0-15.843-15.84-41.481-15.841-57.324 0zM539.82 772.355c6.666-6.665 17.473-6.666 24.137 0 6.665 6.665 6.666 17.471 0 24.137-20.145 20.145-46.932 31.241-75.424 31.241-58.817 0-106.667-47.852-106.667-106.667v-6.4c0-9.426 7.641-17.067 17.067-17.067h175.415c9.426 0 17.067 7.641 17.067 17.067 0 9.424-7.641 17.067-17.067 17.067h-157.565c8.701 58.81 81.021 82.643 123.037 40.622zM238.933 97.905c-9.424 0-17.067-7.642-17.067-17.067v-127.77c0-9.426 7.642-17.067 17.067-17.067s17.067 7.641 17.067 17.067v127.77c0 9.424-7.641 17.067-17.067 17.067zM644.267 118.296c-9.426 0-17.067-7.642-17.067-17.067v-148.164c0-9.426 7.641-17.067 17.067-17.067 9.424 0 17.067 7.641 17.067 17.067v148.164c0 9.424-7.642 17.067-17.067 17.067z" />
<glyph unicode="&#xe915;" glyph-name="twitter" d="M918.001 660.357c40.002 30 75.995 66 104.002 108-36.001-16-78.007-28-120.005-32 44.003 26 76.003 66 91.999 116-39.995-24-85.994-42-131.994-52-40.002 42-94.003 66-154.003 66-116 0-210-94-210-210 0-16 2-32 6-48-174 10-329.999 94-434 220.001-18-30-28-66-28-106 0-72 36-136 94-174-34 2-68 10-96 26v-2c0-102.001 72-186 168-206-16-4-36-8-54-8-14 0-26 2-40 4 26-84 104-144 196-146-72-55.999-162-90.003-260-90.003-18 0-34 2.004-50 4.001 92-59.999 202-93.996 322-93.996 386 0 596.002 317.998 596.002 595.998 0 10 0 18 0 28z" />
<glyph unicode="&#xe916;" glyph-name="usd" d="M694.86 557.714c9.699 0 19.001 3.853 25.86 10.712s10.712 16.16 10.712 25.86v30.215c-0.105 48.999-19.227 96.045-53.338 131.221s-80.546 55.737-129.519 57.348v73.787c0 9.699-3.853 19.001-10.712 25.86s-16.16 10.712-25.86 10.712c-9.699 0-19.002-3.853-25.86-10.712s-10.711-16.161-10.711-25.86v-73.787c-43.38-1.382-84.959-17.661-117.746-46.098s-54.78-67.299-62.281-110.047c-7.501-42.748-0.051-86.774 21.096-124.676s54.701-67.362 95.018-83.43l173.806-69.555c25.043-10.020 45.815-28.449 58.746-52.12s17.214-51.108 12.113-77.594c-5.101-26.486-19.267-50.367-40.065-67.548-20.797-17.174-46.928-26.573-73.901-26.573h-60.431c-30.773 0.037-60.276 12.273-82.036 34.033s-34 51.264-34.035 82.037v30.215c0 9.699-3.853 19.002-10.712 25.86s-16.161 10.712-25.86 10.712c-9.699 0-19.001-3.853-25.86-10.712s-10.712-16.16-10.712-25.86v-30.215c0.104-48.998 19.227-96.044 53.338-131.218 34.111-35.182 80.546-55.742 129.519-57.351v-73.787c0-9.699 3.853-19.003 10.711-25.863 6.859-6.853 16.161-10.708 25.86-10.708s19.001 3.855 25.86 10.708c6.859 6.861 10.712 16.165 10.712 25.863v73.787c43.379 1.382 84.959 17.664 117.745 46.102 32.787 28.431 54.78 67.291 62.281 110.043 7.501 42.748 0.050 86.774-21.096 124.676s-54.701 67.362-95.018 83.43l-173.806 69.555c-25.043 10.020-45.815 28.449-58.746 52.12s-17.214 51.108-12.113 77.594c5.1 26.487 19.267 50.37 40.065 67.546s46.928 26.573 73.901 26.575h60.431c30.773-0.035 60.276-12.275 82.036-34.035s34-51.262 34.035-82.036v-30.215c0-9.699 3.853-19.002 10.711-25.86s16.161-10.712 25.86-10.712z" />
<glyph unicode="&#xe917;" glyph-name="user" d="M874.040 810.039c-96.707 96.703-225.28 149.961-362.040 149.961-136.765 0-265.336-53.258-362.039-149.961s-149.961-225.274-149.961-362.039c0-136.76 53.258-265.334 149.961-362.040 96.703-96.701 225.274-149.96 362.039-149.96 136.76 0 265.334 53.258 362.040 149.96 96.701 96.707 149.96 225.28 149.96 362.040 0 136.765-53.258 265.336-149.96 362.039zM256.68 75.228c21.414 123.295 128.258 214.241 255.32 214.241 127.068 0 233.907-90.947 255.319-214.241-72.694-49.946-160.645-79.227-255.319-79.227-94.672 0-182.625 29.281-255.32 79.227zM349.203 512.266c0 89.774 73.032 162.797 162.797 162.797 89.764 0 162.796-73.031 162.796-162.797 0-89.763-73.032-162.795-162.796-162.795s-162.797 73.032-162.797 162.795zM819.287 116.844c-16.148 57.4-48.215 109.476-93.169 150.154-27.581 24.965-58.972 44.657-92.718 58.542 61 39.788 101.407 108.626 101.407 186.726 0 122.851-99.958 222.797-222.807 222.797-122.851 0-222.797-99.945-222.797-222.797 0-78.1 40.406-146.938 101.399-186.726-33.742-13.885-65.141-33.572-92.719-58.532-44.945-40.678-77.023-92.759-93.172-150.154-88.945 82.601-144.711 200.474-144.711 331.146 0 249.234 202.765 452 452 452s451.999-202.765 451.999-452c0-130.678-55.762-248.556-144.712-331.156z" />
<glyph unicode="&#xe918;" glyph-name="user-2" d="M504.712 466.736c67.765 0 126.445 24.305 174.391 72.258 47.945 47.945 72.25 106.609 72.25 174.382 0 67.749-24.305 126.421-72.258 174.382-47.953 47.937-106.625 72.242-174.383 72.242-67.773 0-126.438-24.305-174.383-72.25s-72.258-106.617-72.258-174.374c0-67.773 24.313-126.445 72.266-174.39 47.953-47.937 106.625-72.25 174.375-72.25zM936.258 172.588c-1.382 19.953-4.176 41.713-8.294 64.7-4.162 23.156-9.509 45.046-15.916 65.054-6.619 20.68-15.616 41.102-26.741 60.672-11.549 20.313-25.11 38-40.331 52.555-15.916 15.226-35.394 27.469-57.929 36.398-22.455 8.882-47.338 13.383-73.953 13.383-10.454 0-20.563-4.289-40.086-17-12.016-7.836-26.070-16.899-41.758-26.922-13.414-8.547-31.586-16.555-54.031-23.805-21.898-7.086-44.133-10.68-66.078-10.68s-44.172 3.594-66.093 10.68c-22.422 7.243-40.594 15.25-53.993 23.797-15.539 9.93-29.602 18.992-41.797 26.937-19.5 12.711-29.617 17-40.071 17-26.625 0-51.5-4.508-73.945-13.398-22.516-8.914-42.007-21.156-57.937-36.398-15.211-14.563-28.782-32.242-40.313-52.547-11.117-19.57-20.117-39.984-26.742-60.679-6.398-20.008-11.75-41.89-15.906-65.047-4.117-22.95-6.914-44.725-8.297-64.729-1.359-19.588-2.047-39.929-2.047-60.467 0-53.453 16.992-96.724 50.5-128.636 33.093-31.495 76.883-47.47 130.133-47.47h493.061c53.248 0 97.024 15.967 130.128 47.47 33.514 31.89 50.505 75.169 50.505 128.644-0.007 20.634-0.702 40.989-2.070 60.489z" />
<glyph unicode="&#xe919;" glyph-name="yatch" d="M1019.015 528.893c-4.105 4.667-10.158 7.162-16.355 6.744l-191.046-12.829-219.028 123.541c-12.765 7.2-24.035 9.743-40.773 0.193-35.673-20.369-123.099-99.071-153.536-151.496l-168.632-11.325-1.34 19.959c-2.106 31.393-28.398 55.981-59.856 55.981-1.336 0-2.692-0.044-4.026-0.135-0.174-0.012-0.346-0.023-0.52-0.041-32.756-2.472-57.536-31.007-55.332-63.848l1.342-19.953-91.254-6.129c-6.526-0.439-12.426-4.040-15.798-9.646s-3.79-12.505-1.118-18.476l37.148-83.064c0.008-0.018 0.016-0.035 0.024-0.053l37.368-83.555c3.128-6.992 9.972-11.586 17.628-11.826l626.065-19.69c0.211-0.006 0.418-0.012 0.629-0.012 85.223 0 160.227 33.186 216.901 95.966 60.129 66.61 80.255 142.904 86.115 172.611 1.202 6.1-0.5 12.414-4.608 17.083zM571.647 611.802c0.132 0.076 0.257 0.146 0.377 0.214 0.272-0.149 0.573-0.316 0.916-0.509l165.92-93.585-289.742-19.462c34.193 43.21 96.446 98.453 122.529 113.342zM167.1 519.61c0.102 0.006 0.204 0.015 0.304 0.023 10.92 0.573 20.266-7.823 20.992-18.634l1.34-19.959-39.91-2.68-1.342 19.953c-0.738 11.007 7.612 20.559 18.616 21.296zM960.734 447.298l-90.25-6.056c-11.018-0.74-19.354-10.275-18.613-21.293 0.708-10.568 9.5-18.663 19.936-18.663 0.448 0 0.904 0.015 1.358 0.047l65.009 4.362c-41.273-64.676-110.583-122.348-217.261-122.462l-613.23 19.286-19.688 44.020 71.524 0.655c11.048 0.099 19.918 9.134 19.816 20.182-0.1 10.983-9.034 19.816-19.994 19.816-0.060 0-0.124 0-0.186 0l-88.976-0.813-20.208 45.188 928.115 62.329c-4.31-14.816-10.053-30.594-17.352-46.598zM814.010 397.403c0.471 0 0.945 0.015 1.422 0.050l0.471 0.032c11.021 0.775 19.324 10.334 18.549 21.352-0.772 11.021-10.348 19.33-21.352 18.552l-0.471-0.035c-11.021-0.775-19.324-10.334-18.549-21.352 0.74-10.541 9.523-18.599 19.93-18.599zM216.797 347.718c0.056 0 0.114 0 0.17 0l0.47 0.006c11.046 0.088 19.926 9.117 19.834 20.164-0.092 10.989-9.026 19.833-19.994 19.833-0.058 0-0.114 0-0.172 0l-0.47-0.006c-11.044-0.088-19.924-9.117-19.834-20.164 0.092-10.989 9.028-19.833 19.996-19.833z" />
<glyph unicode="&#xe91a;" glyph-name="minus" d="M0 374.857v146.286h1024v-146.286h-1024z" />
<glyph unicode="&#xe91b;" glyph-name="plus" d="M438.857 960h146.286v-1024h-146.286v1024zM0 374.857v146.286h1024v-146.286h-1024z" />
<glyph unicode="&#xe91c;" glyph-name="apple" d="M911.724 231.685c-34.876 10.639-66.207 35.466-93.399 74.484-27.192 39.014-40.787 83.35-40.787 131.821 0 44.925 13.005 85.716 38.425 122.364 14.184 20.692 36.649 43.746 67.386 69.755-20.099 24.827-40.787 44.926-61.475 59.113-36.652 25.419-78.622 38.424-125.913 38.424-28.965 0-63.251-7.093-102.266-20.098-39.014-13.596-67.39-20.099-84.533-20.099-13.594 0-40.787 5.911-81.575 17.734-41.379 11.823-75.665 17.734-104.631 17.734-67.981 0-123.547-28.375-167.882-85.123-44.335-57.34-66.798-130.641-66.798-221.085 0-96.945 29.557-195.665 86.897-297.338 58.522-101.676 117.044-153.106 177.931-153.106 19.508 0 45.517 6.504 78.030 20.099 31.92 13.005 60.295 19.509 83.943 19.509 24.233 0 54.381-5.911 89.261-18.916 35.466-12.415 62.658-18.916 82.757-18.916 50.247 0 101.083 38.421 151.923 115.86 34.283 51.43 57.93 101.083 72.708 147.784zM689.459 925.084c0 4.138-0.593 7.685-0.593 11.823-0.59 3.547-1.773 7.685-2.955 13.005-68.569-15.961-118.226-44.926-147.781-87.488-29.558-42.562-44.929-93.399-46.108-151.921 27.782 2.365 47.881 5.911 61.475 10.049 21.282 7.093 42.563 21.281 63.845 42.562 24.827 24.827 43.153 52.020 54.975 81.576 11.232 28.965 17.143 56.158 17.143 80.394z" />
<glyph unicode="&#xe91d;" glyph-name="chevron-sm-down" d="M974.602 728.557h-925.209c-43.782 0-66.086-52.869-34.695-84.259l462.605-462.605c19-19 50.391-19 69.398 0l462.605 462.605c31.383 31.39 9.078 84.259-34.703 84.259z" />
<glyph unicode="&#xe91e;" glyph-name="arrow-top-right" d="M977.467 931.754c-21.424 21.423-56.152 21.423-77.575 0l-853.336-853.33c-21.423-21.424-21.423-56.159 0-77.583s56.156-21.424 77.58 0l853.331 853.334c21.424 21.423 21.424 56.156 0 77.579zM993.536 892.964c0 30.297-24.561 54.857-54.857 54.857h-625.981c-30.297 0-54.857-24.56-54.857-54.857s24.561-54.857 54.857-54.857h571.124v-571.124c0-30.297 24.561-54.854 54.857-54.854s54.857 24.558 54.857 54.854v625.981z" />
<glyph unicode="&#xe91f;" glyph-name="beach-umbrella" d="M417.161-14.411h-0.113c-11.141 0-20.115-9.030-20.115-20.169s9.088-20.169 20.226-20.169c11.141 0 20.171 9.030 20.171 20.169s-9.030 20.169-20.169 20.169zM966.961-5.098c-13.005 21.357-28.928 40.289-47.017 56.086 14.657 8.94 28.187 19.587 40.422 31.863 41.035 41.020 63.633 95.567 63.633 153.591 0 58.018-22.595 112.558-63.607 153.564-0.002 0.002-0.005 0.003-0.007 0.009l-0.002 0.002c-0.002 0.002-0.003 0.003-0.005 0.005-41.009 41.050-95.539 63.659-153.549 63.659s-112.543-22.608-153.535-63.643c-45.319-45.281-68.082-108.227-62.857-171.575-9.716-2.425-19.195-5.741-28.384-9.957-20.029 22.465-44.208 39.905-70.719 51.505l-90.672 338.586c30.273 3.666 61.058-2.454 89.044-17.826 1.717-4.489 5.012-8.39 9.627-10.752 2.941-1.507 6.079-2.22 9.175-2.22 7.33 0 14.401 4.011 17.969 10.984 1.911 3.732 3.418 7.9 4.536 12.483 20.212 33.703 51.103 57.462 87.842 67.294 39.443 10.557 81.060 3.85 117.18-18.886 7.018-4.419 16.029-4.089 22.707 0.829 6.68 4.919 9.665 13.425 7.528 21.441-13.184 49.425-35.509 95.014-66.353 135.493-6.75 8.86-19.407 10.572-28.269 3.82-8.859-6.752-10.571-19.408-3.82-28.271 18.388-24.131 33.396-50.294 44.865-78.153-33.843 10.892-69.656 11.959-104.269 2.697-30.302-8.11-57.448-23.538-79.776-44.93-1.271 5.96-2.77 12.15-4.557 18.627-10.228 37.091-28.025 78.665-50.113 117.065-17.2 29.897-54.417 87.223-103.868 121.765 58.283 3.292 116.878-8.022 170.127-33.456 10.045-4.804 22.095-0.546 26.894 9.508 4.803 10.052 0.543 22.094-9.508 26.894-83.616 39.934-179.031 48.706-268.674 24.694-0.043-0.012-0.082-0.024-0.125-0.034-0.085-0.024-0.169-0.048-0.256-0.072-207.354-55.85-330.821-269.925-275.259-477.408 2.148-8.015 8.982-13.896 17.226-14.826 0.76-0.084 1.516-0.126 2.264-0.126 7.412 0 14.31 4.087 17.828 10.749 19.968 37.798 52.712 64.437 92.194 75.010 36.693 9.825 75.262 4.697 109.563-14.346 3.27-3.429 6.67-6.303 10.201-8.588 3.388-2.193 7.188-3.241 10.943-3.241 6.613 0 13.092 3.249 16.951 9.213 2.819 4.352 3.722 9.38 2.964 14.126 16.553 27.331 40.175 48.039 68.246 60.006l84.214-314.47c-14.913 2.572-30.194 3.42-45.582 2.413-82.021-5.321-153.665-62.244-182.163-143.249-70.101-9.603-131.833-56.74-167.031-128.375-5.388-10.959-14.402-29.3-4.666-44.611 9.828-15.454 28.218-15.14 56.052-14.619h224.87c11.139 0 20.169 9.030 20.169 20.169s-9.030 20.169-20.169 20.169h-225.050c-0.126 0-0.254-0.002-0.378-0.003-4.934-0.092-10.44-0.186-15.232-0.169 0.196 0.41 0.402 0.831 0.618 1.268 31.056 63.218 86.133 103.335 147.334 107.317 8.509 0.555 15.751 6.4 18.087 14.602 20.398 71.603 80.751 122.74 150.188 127.247 52.931 3.465 104.457-20.808 137.822-64.944 6.18-8.173 17.504-10.414 26.334-5.212 16.992 10.016 35.444 15.747 54.827 17.034 54.905 3.56 104.752-30.484 125.629-83.185 0.082-0.22 0.164-0.439 0.254-0.657 2.62-6.712 4.797-13.706 6.432-20.98 2.178-9.694 11.141-16.355 20.994-15.708 33.548 2.19 66.046-6.371 94.549-23.968 0.997-0.754 2.043-1.428 3.154-1.981 19.632-12.716 37.279-29.783 51.927-50.654h-404.453c-11.139 0-20.169-9.030-20.169-20.171 0-11.139 9.030-20.169 20.169-20.169h418.087c3.284 0 6.112-0.075 8.506-0.138 1.476-0.038 3.007-0.079 4.565-0.079 8.832 0 18.562 1.29 24.424 11.447 7.035 12.182 0.575 22.717-6.9 34.918l-2.145 3.5zM218.47 589.327c1.69-6.506 3.485-12.616 5.362-18.413-29.993 7.352-61.176 7.148-91.44-0.959-34.636-9.274-65.146-28.104-89.052-54.477-19.51 147.625 57.76 291.479 189.164 357.741-25.586-54.646-29.179-122.918-29.133-157.416 0.056-44.308 5.419-89.225 15.099-126.476zM269.319 564.541c-13.215 30.025-25.523 85.49-25.607 151.315-0.111 86.641 20.727 153.609 56.052 181.517 44.532-6.514 96.044-54.098 139.249-129.198 32.816-57.045 49.867-111.232 53.417-143.836-38.934 16.894-81.343 20.313-122.092 9.39-40.747-10.924-75.757-35.092-101.019-69.188zM630.54 223.283c-3.779 51.089 14.734 101.712 51.284 138.23 33.384 33.42 77.781 51.826 125.007 51.826 23.653 0 46.592-4.62 67.797-13.428-5.55-1.79-11.255-3.913-17.108-6.388-39.318-16.623-82.461-47.258-121.487-86.267-28.182-28.192-51.908-58.412-69.373-88.219-11.682 2.749-23.774 4.197-36.12 4.246zM775.444 134.938c-16.587 30.23-41.17 54.352-70.344 69.711 15.377 24.859 35.959 50.579 59.455 74.083 35.432 35.418 74.028 62.991 108.674 77.638 27.228 11.51 50.229 13.537 58.624 5.129 0.002-0.002 0.002-0.003 0.005-0.003 8.38-8.375 6.357-31.384-5.159-58.622-14.653-34.659-42.231-73.247-77.674-108.674-23.731-23.784-48.845-43.977-73.581-59.261zM883.279 76.948c-26.17 14.698-54.74 23.299-83.896 25.392 26.515 16.722 53.158 38.263 78.182 63.343 39.016 39.001 69.661 82.142 86.294 121.479 2.471 5.847 4.596 11.549 6.383 17.096 8.8-21.21 13.416-44.157 13.416-67.814 0-47.247-18.398-91.662-51.838-125.088-14.181-14.227-30.483-25.759-48.541-34.406zM623.35 827.404c5.163 0 10.327 1.97 14.264 5.908 7.876 7.876 7.876 20.648 0 28.524l-0.056 0.056c-7.875 7.876-20.62 7.85-28.498-0.028-7.875-7.876-7.849-20.676 0.029-28.554 3.936-3.936 9.098-5.906 14.261-5.906z" />
<glyph unicode="&#xe920;" glyph-name="bed" d="M913.666 510.132h-18.199v211.002c0 60.836-49.496 110.332-110.334 110.332h-546.265c-60.838 0-110.332-49.496-110.332-110.332v-211.002h-18.204c-60.838 0-110.332-49.492-110.332-110.334v-305.267c0-16.568 13.432-29.999 30-29.999s30 13.431 30 29.999v34.267h904.002v-34.267c0-16.568 13.431-29.999 29.999-29.999s29.999 13.431 29.999 29.999v305.267c0 60.842-49.492 110.334-110.334 110.334zM188.536 721.134c0 27.752 22.578 50.332 50.332 50.332h546.265c27.754 0 50.336-22.58 50.336-50.332v-211.002h-112.869c7.778 15.106 12.202 32.207 12.202 50.334v32.134c0 60.836-49.492 110.332-110.334 110.332h-224.932c-60.84 0-110.336-49.496-110.336-110.332v-32.134c0-18.127 4.422-35.228 12.2-50.334h-112.864v211.002zM349.2 560.466v32.134c0 27.752 22.58 50.332 50.336 50.332h224.932c27.754 0 50.336-22.58 50.336-50.332v-32.134c0-27.752-22.581-50.334-50.336-50.334h-224.932c-27.756 0-50.336 22.581-50.336 50.334zM110.332 450.134h803.338c27.754 0 50.332-22.581 50.332-50.336v-82.465h-904.002v82.465c0 27.754 22.578 50.336 50.332 50.336zM60 257.335h904.002v-68.534h-904.002v68.534z" />
<glyph unicode="&#xe921;" glyph-name="camping" d="M1021.817 225.082l-307.999 604c-4.785 9.386-16.034 13.45-25.718 9.288-94.478-40.632-165.412-40.472-291.922 0.648-9.25 2.998-19.99-1.59-24.204-10.366l-289.688-603.352-79.648-139.382c-5.48-9.59-2.148-21.806 7.444-27.288 9.482-5.422 21.886-2.010 27.286 7.443l42.634 74.61v-64.688c0-11.044 8.956-20 20-20h903.999c11.044 0 19.999 8.957 19.999 20 0 0 0 139.943 0 140 0 0.437-0.959 6.688-2.183 9.086zM224.005 289.997v-194h-104.001v115.447l249.999 520.69v-397.609l-129.768-24.885c-9.419-1.809-16.23-10.051-16.23-19.644zM264.003 273.468l85.692 16.435-85.692-142.037v125.602zM279.429 95.997l110.575 183.282 110.577-183.282h-221.152zM516.002 147.864l-84.408 139.913 84.408-19.656v-120.257zM664.004 95.997h-108.001v188c0 9.298-6.409 17.37-15.462 19.478l-130.536 30.397v399.338l254-521.822v-115.391zM483.528 673.551c11.274-2.56 24.086-5.161 37.734-7.375 10.726-1.785 21.219 5.854 22.938 16.541 1.761 10.9-5.659 21.18-16.539 22.941-21.32 3.459-40.68 8.020-53.18 11.259-4.803 1.229-9.433 2.5-13.901 3.775l-32.543 66.865c90.627-25.168 165.296-29.164 258.505 6.962l284.81-558.526h-274.842l-212.983 437.557zM704.002 95.997v61.329l47.311-61.329h-47.311zM984.001 95.997h-182.168l-77.143 99.999h259.311v-99.999zM604.184 661.6c11.046 0 19.999 8.955 19.999 20s-8.953 20-19.999 20c-11.046 0-20-8.955-20-20s8.955-20 20-20z" />
<glyph unicode="&#xe922;" glyph-name="car" d="M969.946 385.901l-186.999 81.756-111.906 137.721c-6.731 8.332-15.247 15.049-24.917 19.656s-20.251 6.987-30.962 6.966h-447.601c-16.354 0.055-32.396-4.474-46.307-13.072-13.911-8.597-25.135-20.922-32.399-35.572l-71.57-143.124c-6.085-12.22-9.262-25.679-9.284-39.332v-192.898c0.021-19.091 7.614-37.393 21.112-50.889 13.498-13.5 31.799-21.091 50.888-21.111h26.414c5.534-27.102 20.259-51.463 41.686-68.956s48.239-27.047 75.9-27.047c27.661 0 54.473 9.554 75.9 27.047s36.152 41.854 41.686 68.956h372.832c5.53-27.129 20.268-51.511 41.721-69.011 21.453-17.504 48.295-27.047 75.981-27.020s54.511 9.629 75.926 27.174c21.419 17.545 36.106 41.957 41.581 69.096 18.057 1.434 34.912 9.615 47.21 22.91 12.298 13.298 19.139 30.737 19.162 48.852v110.739c-0.044 14.524-4.465 28.699-12.677 40.677-8.212 11.981-19.845 21.207-33.376 26.484zM633.774 575.123l83.797-103.124h-181.572v112.002h79.162c3.567 0.007 7.093-0.788 10.315-2.324s6.055-3.775 8.298-6.554zM392.001 584.001v-112.002h-203.841l53.818 112.002h150.023zM131.786 561.886c3.301 6.659 8.403 12.264 14.726 16.172s13.615 5.967 21.048 5.943h21.164l-53.818-112.002h-48.070l44.95 89.887zM224 87.999c-14.24 0-28.161 4.222-40.001 12.134s-21.069 19.156-26.518 32.314c-5.449 13.155-6.875 27.631-4.097 41.598s9.635 26.798 19.705 36.867c10.069 10.069 22.898 16.927 36.865 19.702 13.967 2.778 28.443 1.355 41.6-4.096 13.156-5.448 24.401-14.677 32.313-26.518s12.134-25.76 12.134-40.001c-0.021-19.087-7.614-37.39-21.112-50.889-13.498-13.496-31.799-21.091-50.888-21.111zM832 87.999c-14.24 0-28.16 4.222-40.001 12.134s-21.071 19.156-26.518 32.314c-5.451 13.155-6.874 27.631-4.096 41.598 2.775 13.967 9.632 26.798 19.702 36.867s22.9 16.927 36.867 19.702c13.967 2.778 28.443 1.355 41.598-4.096 13.158-5.448 24.402-14.677 32.314-26.518s12.134-25.76 12.134-40.001c-0.020-19.087-7.615-37.39-21.111-50.889-13.5-13.496-31.802-21.091-50.889-21.111zM968.001 208.002c-0.010-5.417-1.847-10.667-5.216-14.906s-8.069-7.216-13.343-8.448c-5.663 27.020-20.47 51.258-41.926 68.635-21.453 17.374-48.244 26.819-75.851 26.743-27.607-0.079-54.344-9.67-75.701-27.163-21.361-17.49-36.035-41.813-41.547-68.864h-372.832c-5.534 27.102-20.259 51.463-41.686 68.956s-48.239 27.047-75.9 27.047c-27.661 0-54.473-9.554-75.9-27.047s-36.152-41.854-41.686-68.956h-26.414c-6.363 0.007-12.463 2.54-16.963 7.038s-7.030 10.598-7.037 16.964v192.898c0.012 6.209 1.459 12.329 4.226 17.886l2.6 5.216h353.174c6.366 0 12.469 2.529 16.971 7.028 4.499 4.502 7.028 10.605 7.028 16.971v136.001h48.002v-136.001c0-6.366 2.529-12.469 7.028-16.971 4.502-4.499 10.605-7.028 16.971-7.028h250.982l188.262-82.309c0.393-0.174 0.788-0.335 1.188-0.485 4.567-1.727 8.496-4.803 11.278-8.813 2.778-4.011 4.273-8.772 4.291-13.653v-110.739zM224 136.001c13.255 0 24 10.745 24 23.999s-10.745 23.999-24 23.999c-13.255 0-24-10.745-24-23.999s10.745-23.999 24-23.999zM832 136.001c13.254 0 23.999 10.745 23.999 23.999s-10.745 23.999-23.999 23.999c-13.254 0-23.999-10.745-23.999-23.999s10.745-23.999 23.999-23.999zM544 375.999h-30c-6.366 0-12.469-2.529-16.971-7.028-4.502-4.502-7.028-10.605-7.028-16.971s2.526-12.469 7.028-16.971c4.502-4.499 10.605-7.028 16.971-7.028h30c6.366 0 12.469 2.529 16.971 7.028 4.499 4.502 7.028 10.605 7.028 16.971s-2.529 12.469-7.028 16.971c-4.502 4.499-10.605 7.028-16.971 7.028zM256 375.999h-48c-6.365 0-12.47-2.529-16.97-7.028-4.501-4.502-7.029-10.605-7.030-16.971s2.529-12.469 7.030-16.971c4.501-4.499 10.605-7.028 16.97-7.028h48c6.365 0 12.47 2.529 16.97 7.028 4.501 4.502 7.029 10.605 7.029 16.971s-2.528 12.469-7.029 16.971c-4.501 4.499-10.605 7.028-16.97 7.028z" />
<glyph unicode="&#xe923;" glyph-name="chevron-left" d="M283.444 436.464l434.161-432.961c14.224-14.177 37.255-14.153 51.456 0.074 14.19 14.224 14.153 37.268-0.073 51.456l-408.319 407.19 408.334 407.189c14.224 14.19 14.261 37.218 0.073 51.445-7.119 7.132-16.445 10.697-25.771 10.697-9.302 0-18.592-3.542-25.698-10.624l-434.163-432.949c-6.851-6.816-10.695-16.093-10.695-25.758s3.855-18.93 10.695-25.759z" />
<glyph unicode="&#xe924;" glyph-name="chevron-right" d="M740.556 487.982l-434.161 432.959c-14.224 14.177-37.255 14.153-51.456-0.073-14.19-14.225-14.153-37.268 0.073-51.456l408.319-407.19-408.333-407.189c-14.226-14.19-14.262-37.218-0.074-51.445 7.119-7.132 16.445-10.697 25.771-10.697 9.302 0 18.592 3.542 25.698 10.623l434.163 432.949c6.852 6.816 10.695 16.093 10.695 25.758s-3.855 18.93-10.695 25.76z" />
<glyph unicode="&#xe925;" glyph-name="city" d="M75.796 138.197c18.23 0 35.348 6.349 48.866 17.814 23.714-10.569 49.427-16.57 75.487-17.628v-78.915c-108.819-43.095-161.897-85.83-164.529-87.98-6.548-5.349-9.022-14.239-6.182-22.205s10.382-13.281 18.838-13.281h540.208c11.046 0 20 8.953 20 19.999s-8.955 20-20 20h-472.118c21.542 11.998 49.47 26.006 83.922 40.329 1.13-9.974 9.586-17.729 19.862-17.729 11.046 0 20 8.955 20 20v13.28c148.628 54.351 308.432 75.665 466.135 76.657 98.635 0.614 197.286-6.84 294.941-20.526 11.812-1.655 22.775 7.863 22.775 19.813v749.597c0 11.046-8.953 20-20 20h-308.401c-11.046 0-20-8.954-20-20v-709.347c-17.109-0.398-34.079-1.029-50.9-1.911v479.078c0 11.046-8.953 20-20 20h-55.32v42.419c0 11.047-8.953 20-19.999 20h-139.221c-11.046 0-19.999-8.953-19.999-20v-42.419h-55.32c-11.047 0-20-8.955-20-20v-94.865c-26.283 12.22-55.552 19.055-86.395 19.055-113.377 0-205.617-92.24-205.617-205.617 0-27.759 5.406-54.519 16.090-79.759-12.042-13.713-18.918-31.51-18.918-50.060 0-41.795 34.002-75.796 75.796-75.796zM273.666 85.523c-11.616-3.666-22.777-7.392-33.516-11.151v66.282c18.92 2.944 37.321 8.527 54.69 16.573v-65.268c-7.105-2.096-14.174-4.227-21.175-6.436zM717.6 148.594c-0.666 0-1.335 0-2 0v75.947h268.399v-93.838c-88.3 11.469-177.34 17.891-266.399 17.891zM983.999 837.421v-572.881h-268.399v572.881h268.399zM334.839 605.24h55.32c11.047 0 20 8.955 20 20v42.421h99.22v-42.421c0-11.046 8.953-20 20-20h55.32v-461.633c-84.197-6.485-168.067-19.434-249.861-40.574v47.145c38.997-8.881 80.601 5.088 106.392 35.664h80.906c11.046 0 20 8.955 20 20s-8.955 20-20 20h-59.628c2.644 9.327 4.089 19.154 4.089 29.317 0 14.348-2.845 28.237-8.107 41.006h63.645c11.046 0 20 8.955 20 20s-8.955 20-20 20h-92.288c-4.878 4.272-10.16 8.136-15.821 11.508-0.37 19.937-3.651 39.83-9.743 58.817h117.852c11.046 0 20 8.955 20 20s-8.955 20-20 20h-127.469c-2.591 0-5.059-0.509-7.33-1.406-13.273 23.482-31.234 44.314-52.499 60.906v99.248zM61.012 268.399c-12.066 23.537-18.184 48.908-18.184 75.414 0 91.322 74.296 165.618 165.617 165.618 93.044 0 169.492-80.183 165.429-172.969-0.343-7.755 3.831-14.957 10.614-18.55 18.133-9.614 32.343-21.868 38.863-42.086 7.001-21.716 2.299-46.097-12.225-63.691-22.9-27.737-64.898-32.558-93.385-10.66-6.581 5.057-15.599 5.526-22.668 1.178-16.932-10.416-35.54-17.613-54.922-21.383v119.089c0 11.104 4.323 21.543 12.177 29.397l17.865 17.864c7.81 7.81 7.81 20.475 0 28.286s-20.475 7.81-28.286 0l-17.864-17.864c-15.409-15.408-23.893-35.895-23.893-57.682v-18.964l-28.826 28.824c-7.81 7.81-20.474 7.81-28.284 0s-7.81-20.473 0-28.285l41.219-41.218c10.247-10.245 15.889-23.869 15.889-38.361v-23.933c-24.59 1.236-48.734 7.927-70.294 19.577-8.596 4.647-19.588 2.244-25.468-5.543-6.842-9.062-17.264-14.261-28.59-14.261-19.738 0-35.796 16.058-35.796 35.797 0 11.464 5.574 22.327 14.91 29.058 8.018 5.78 10.61 16.55 6.102 25.346zM1004.003-23.999h-239.619c-11.046 0-20-8.955-20-20 0-11.047 8.955-20 20-20h239.619c11.046 0 20 8.953 20 20s-8.955 20-20 20zM219.924 960c-33.321 0-63.617-16.922-81.148-44.26-2.916 0.346-5.862 0.52-8.824 0.52-41.136 0-74.602-33.466-74.602-74.602s33.466-74.602 74.602-74.602h239.016c11.046 0 20 8.953 20 20 0 11.045-8.955 19.999-20 19.999h-70.9c11.515 15.888 18.328 35.394 18.328 56.472 0 53.194-43.278 96.472-96.471 96.472v0zM95.348 841.656c0 19.080 15.522 34.602 34.602 34.602 4.2 0 8.312-0.75 12.224-2.228 10.1-3.814 21.416 1.080 25.548 11.064 8.775 21.204 29.263 34.906 52.202 34.906 31.14 0 56.472-25.334 56.472-56.472s-25.334-56.472-56.472-56.472h-89.974c-19.080-0.002-34.602 15.522-34.602 34.6zM394.667 516.821h127.469c11.047 0 20 8.953 20 19.999s-8.953 20-20 20h-127.469c-11.046 0-20-8.953-20-20 0-11.046 8.955-19.999 20-19.999zM775.567 658.429h152.253c11.046 0 20 8.955 20 20v75.592c0 11.046-8.955 20-20 20h-152.253c-11.047 0-20-8.955-20-20v-75.59c0-11.047 8.953-20.002 20-20.002zM795.566 734.020h112.254v-35.589h-112.254v35.589zM775.567 490.615h152.253c11.046 0 20 8.955 20 20v75.592c0 11.047-8.955 20-20 20h-152.253c-11.047 0-20-8.953-20-20v-75.592c0-11.046 8.953-20 20-20zM795.566 566.209h112.254v-35.593h-112.254v35.593zM775.567 322.802h152.253c11.046 0 20 8.953 20 19.999v75.593c0 11.046-8.955 19.999-20 19.999h-152.253c-11.047 0-20-8.953-20-19.999v-75.593c0-11.046 8.953-19.999 20-19.999zM795.566 398.394h112.254v-35.593h-112.254v35.593zM455.864 806.659c-8.557-1.738-15.104-8.95-15.998-17.642-0.889-8.648 4.253-17.12 12.259-20.437 7.859-3.258 17.246-1.053 22.789 5.419 5.383 6.287 6.342 15.402 2.386 22.668-4.108 7.54-13.008 11.704-21.436 9.992zM659.741-55.1c9.696-14.795 33.307-9.627 36.323 7.683 3.195 18.331-19.367 30.688-33.135 18.232-7.255-6.567-8.6-17.794-3.188-25.916z" />
<glyph unicode="&#xe926;" glyph-name="destination" d="M307.101 739.826c0 52.282-42.535 94.816-94.816 94.816s-94.818-42.535-94.818-94.816c0-52.282 42.534-94.816 94.816-94.816s94.818 42.534 94.818 94.816zM212.283 704.942c-19.236 0-34.884 15.648-34.884 34.884s15.648 34.883 34.884 34.883c19.235 0 34.883-15.648 34.883-34.883s-15.648-34.884-34.883-34.884zM1023.976 459.407c-0.474 11.807-7.844 22.234-18.814 26.624l-318.536 127.413c-9.233 3.693-19.695 2.567-27.931-3.007-8.233-5.574-13.165-14.868-13.165-24.815v-439.511c-36.625-10.824-65.021-40.953-73.37-78.565h-423.869c-31.951 0-57.946 25.996-57.946 57.945 0 31.952 25.995 57.948 57.946 57.948h271.16c61.652 0 111.811 50.159 111.811 111.811 0 61.655-50.159 111.814-111.811 111.814h-154.327l128.928 215.551c21.852 36.531 33.399 78.342 33.399 120.908 0 117.848-95.876 213.726-213.724 213.726s-213.728-95.876-213.728-213.724v-0.764c0-41.995 11.263-83.323 32.571-119.51l153.888-261.356c4.801-7.718 13.649-14.838 25.72-14.763h207.275c28.604 0 51.879-23.272 51.879-51.879s-23.276-51.879-51.879-51.879h-271.164c-64.998 0-117.88-52.883-117.88-117.883 0-64.997 52.882-117.879 117.88-117.879h428.017c15.032-40.182 53.811-68.867 99.174-68.867 58.368 0 105.851 47.483 105.851 105.851 0 47.954-32.061 88.538-75.868 101.502v135.414l301.892 149.849c10.581 5.257 17.094 16.241 16.62 28.047zM84.216 653.661c-15.886 26.982-24.283 57.792-24.283 89.102v0.764c0 84.8 68.991 153.793 153.793 153.793s153.791-68.993 153.791-153.793c0-31.736-8.608-62.906-24.9-90.145l-130.132-217.568-128.269 217.847zM721.398 44.599c0-25.32-20.603-45.92-45.916-45.92-25.317 0-45.92 20.599-45.92 45.92 0 25.289 20.552 45.868 45.831 45.916 0.034 0 0.072-0.007 0.106-0.007 0.031 0 0.065 0.003 0.096 0.003 25.265-0.058 45.804-20.63 45.804-45.913zM705.464 348.426v192.935l215.238-86.098-215.238-106.837z" />
<glyph unicode="&#xe927;" glyph-name="email" horiz-adv-x="956" d="M915.434 472.704c-5.333 2.924-10.988 4.726-16.708 5.465v244.552c0 32.763-26.656 59.419-59.421 59.419h-17.5v127.38c0.003 27.834-22.651 50.48-50.497 50.48h-586.9c-27.834 0-50.48-22.646-50.48-50.48v-35.86c0-8.284 6.716-15 15-15s15 6.716 15 15v35.86c0 11.292 9.187 20.48 20.48 20.48h586.9c11.303 0 20.499-9.188 20.499-20.48v-486.852l-308.681-196.925c-5.543-3.535-12.682-3.507-18.195 0.073l-301.003 195.439v391.745c0 8.284-6.716 15-15 15s-15-6.716-15-15v-30.86h-17.5c-32.764 0-59.42-26.656-59.42-59.419v-245.19c-5.702-0.712-11.316-2.456-16.542-5.292-15.094-8.195-24.472-23.958-24.472-41.134v-448.294c0-25.81 20.998-46.809 46.808-46.809h20.066c8.284 0 15 6.716 15 15s-6.716 15-15 15h-20.064c-9.268 0-16.808 7.54-16.808 16.809v448.292c0 6.262 3.286 11.785 8.788 14.771 5.504 2.987 11.922 2.736 17.172-0.674l376.637-244.545c15.346-9.967 35.236-10.047 50.668-0.205l384.631 245.378c5.248 3.35 11.65 3.567 17.12 0.568 5.465-2.995 8.728-8.506 8.728-14.74v-315.325c0-8.284 6.714-15 15-15s15 6.716 15 15v315.329c0.003 17.357-9.083 32.701-24.305 41.045zM133.927 440.731l-45.634 29.631c-0.422 0.273-0.858 0.514-1.286 0.773v251.585c0 16.222 13.198 29.42 29.42 29.42h17.5v-311.409zM868.727 471.695c-0.323-0.195-0.652-0.372-0.971-0.575l-45.949-29.314v310.333h17.498c16.224 0 29.421-13.198 29.421-29.42v-251.025z" />
<glyph unicode="&#xe928;" glyph-name="facebook" d="M725.6 392.333l26.133 171.734h-166.134v112c0 48.534 22.4 93.334 97.067 93.334h76.533v147.467c0 0-69.066 13.067-134.4 13.067-136.266 0-225.866-84-225.866-233.333v-132.533h-153.067v-171.734h153.067v-418.131h186.666v418.131h140.001z" />
<glyph unicode="&#xe929;" glyph-name="arrow-sm-left" d="M16.368 408.203l369.802-369.812c10.556-10.556 24.625-16.35 39.627-16.35 15.019 0 29.080 5.803 39.636 16.35l33.575 33.587c10.548 10.539 16.359 24.619 16.359 39.625 0 15.002-5.811 29.554-16.359 40.094l-215.737 216.212h685.407c30.908 0 55.322 24.193 55.322 55.104v47.479c0 30.911-24.414 57.543-55.322 57.543h-687.854l218.177 217.42c10.548 10.556 16.358 24.251 16.358 39.261 0 14.994-5.81 28.888-16.358 39.436l-33.575 33.475c-10.557 10.557-24.618 16.309-39.636 16.309-15.002 0-29.071-5.827-39.627-16.384l-369.802-369.802c-10.581-10.59-16.4-24.725-16.359-39.753-0.033-15.077 5.778-29.222 16.367-39.794z" />
<glyph unicode="&#xe92a;" glyph-name="arrow-sm-right" d="M1007.633 487.797l-369.804 369.811c-10.556 10.557-24.625 16.351-39.627 16.351-15.019 0-29.080-5.803-39.636-16.351l-33.575-33.584c-10.547-10.54-16.358-24.617-16.358-39.627 0-15.002 5.811-29.554 16.358-40.094l215.738-216.212h-685.408c-30.903 0-55.32-24.193-55.32-55.104v-47.479c0-30.911 24.418-57.543 55.32-57.543h687.855l-218.177-217.419c-10.548-10.557-16.358-24.252-16.358-39.262 0-14.994 5.81-28.886 16.358-39.433l33.575-33.476c10.557-10.556 24.618-16.307 39.636-16.307 15.002 0 29.071 5.828 39.627 16.384l369.804 369.799c10.581 10.59 16.401 24.726 16.358 39.753 0.034 15.077-5.777 29.222-16.367 39.794z" />
<glyph unicode="&#xe92b;" glyph-name="arrow-left" d="M430.959 166.383c-12.495-12.497-32.756-12.497-45.253 0l-258.987 258.987c-6.001 6.003-9.373 14.14-9.373 22.626s3.372 16.627 9.373 22.63l258.987 258.985c12.497 12.497 32.758 12.497 45.253 0 12.497-12.497 12.497-32.758 0-45.255l-236.358-236.361 236.358-236.356c12.497-12.497 12.497-32.759 0-45.257zM906.667 448c0-17.673-14.327-32-32-32h-718.080c-17.673 0-32 14.327-32 32s14.327 32 32 32h718.080c17.673 0 32-14.327 32-32z" />
<glyph unicode="&#xe92c;" glyph-name="edit" d="M622.36 803.984l-557.9-557.9-63.234-257.516c-3.542-14.416 0.71-29.637 11.208-40.133 10.532-10.533 25.76-14.738 40.134-11.205l257.518 63.232 557.9 557.899-245.626 245.624zM81.754 17.752l21.742 88.547 66.8-66.801-88.542-21.745zM1005.202 786.364l-154.829 154.832c-25.073 25.072-65.726 25.072-90.792 0l-61.653-61.65 245.622-245.624 61.652 61.65c25.073 25.070 25.073 65.72 0 90.792z" />
<glyph unicode="&#xe92d;" glyph-name="eye" d="M1018.374 465.462c-9.139 12.772-229.050 312.538-506.376 312.538-277.324 0-497.234-299.766-506.374-312.54-7.5-10.43-7.5-24.492 0-34.922 9.14-12.772 229.052-312.535 506.374-312.535 277.32 0 497.236 299.763 506.376 312.537 7.501 10.43 7.501 24.492 0 34.922zM511.999 238.003c-115.782 0-210 94.215-210 209.997s94.218 210 210 210c115.782 0 209.998-94.218 209.998-210s-94.214-209.997-209.998-209.997zM512 538c-49.628 0-90-40.372-90-90s40.372-90 90-90c49.628 0 90 40.372 90 90 0.002 49.628-40.37 90-90 90z" />
<glyph unicode="&#xe92e;" glyph-name="trash-2" d="M884.283 670c21.175 0 35.847 21.402 27.911 41.028-28.182 69.682-96.549 118.972-176.216 118.972h-36.83c-13.734 72.546-77.341 130-155.173 130h-64c-77.782 0-141.43-57.416-155.172-130h-36.828c-79.668 0-148.032-49.29-176.218-118.972-7.938-19.626 6.739-41.028 27.91-41.028h744.615zM479.976 900h64c43.8 0 80.98-29.468 93.496-70h-250.993c12.516 40.531 49.696 70 93.496 70zM222.115 19.61c3.338-46.885 42.772-83.61 89.772-83.61h400.242c46.999 0 86.437 36.725 89.773 83.61l42.043 590.39h-663.873l42.044-590.39zM594.047 449.498c0.828 16.548 14.938 29.31 31.459 28.464 16.549-0.828 29.292-14.915 28.464-31.46l-16-320.001c-0.802-16.033-14.058-28.504-29.938-28.504-17.274 0-30.84 14.446-29.988 31.503l16.002 319.999zM398.512 477.962c16.526 0.829 30.634-11.918 31.459-28.464l16-319.999c0.852-17.064-12.724-31.503-29.988-31.503-15.88 0-29.136 12.471-29.938 28.504l-16 320.001c-0.826 16.546 11.918 30.632 28.466 31.46z" />
<glyph unicode="&#xe92f;" glyph-name="upload-file" d="M545.848 529.144c-0.632 0.507-1.252 0.993-1.856 1.467v-295.944c0-17.672-14.328-32-32-32-17.674 0-32 14.328-32 32v295.944c-0.607-0.474-1.226-0.96-1.856-1.467-13.765-11.057-30.131-27.5-54.441-52.029l-59.643-60.175c-12.439-12.554-32.701-12.644-45.253-0.202-12.554 12.442-12.644 32.704-0.202 45.258l60.943 61.486c22.671 22.876 41.582 41.958 58.519 55.562 17.769 14.267 36.442 25.121 59.19 28.022 9.789 1.247 19.697 1.247 29.484 0 22.751-2.9 41.421-13.755 59.192-28.022 16.937-13.604 35.848-32.684 58.516-55.562l60.946-61.486c12.442-12.554 12.352-32.817-0.202-45.258-12.552-12.442-32.814-12.352-45.256 0.202l-59.64 60.175c-24.31 24.53-40.678 40.973-54.441 52.029zM826.87 859.812c-34.406 24.995-74.696 36.187-124.429 41.575-48.73 5.28-110.152 5.28-188.513 5.279h-2.401c-49.492 0-92.047 0-128.622-1.253-79.933-2.739-138.685-11.389-185.774-45.601-20.828-15.132-39.144-33.448-54.276-54.276-34.212-47.089-42.863-105.84-45.601-185.773-1.253-36.575-1.253-79.13-1.253-128.627v-87.736c-0.001-78.356-0.001-139.779 5.279-188.508 5.388-49.733 16.58-90.022 41.575-124.429 15.132-20.826 33.448-39.142 54.276-54.272 34.403-24.998 74.696-36.191 124.426-41.58 48.73-5.279 110.154-5.279 188.511-5.279h3.866c78.356 0 139.779 0 188.508 5.279 49.733 5.389 90.022 16.581 124.429 41.58 20.826 15.13 39.142 33.446 54.272 54.272 24.998 34.406 36.191 74.696 41.58 124.429 5.279 48.73 5.279 110.152 5.279 188.508v89.201c0 78.354 0 139.781-5.279 188.511-5.389 49.729-16.581 90.023-41.58 124.425-15.13 20.828-33.446 39.144-54.272 54.276zM512 842.667c80.707 0 138.665-0.044 183.552-4.907 44.283-4.798 72.026-13.977 93.699-29.725 15.396-11.185 28.933-24.722 40.115-40.116 15.749-21.675 24.927-49.417 29.727-93.702 4.864-44.882 4.908-102.843 4.908-183.549v-85.335c0-80.707-0.044-138.665-4.908-183.552-4.8-44.283-13.978-72.026-29.727-93.699-11.182-15.396-24.719-28.933-40.115-40.115-21.673-15.749-49.416-24.927-93.699-29.727-44.887-4.864-102.845-4.908-183.552-4.908-80.709 0-138.668 0.044-183.549 4.908-44.285 4.8-72.028 13.978-93.702 29.727-15.394 11.182-28.932 24.719-40.116 40.115-15.748 21.673-24.927 49.416-29.725 93.699-4.863 44.887-4.906 102.845-4.906 183.552v85.335c0 36.193 0.002 67.914 0.462 96.077 20.252 0.187 35.16 0.817 48.584 2.944 104.977 16.625 187.307 98.957 203.934 203.933 2.127 13.423 2.757 28.332 2.944 48.584 28.16 0.46 59.884 0.462 96.077 0.462zM199.034 652.9c-8.749-1.385-18.879-1.915-36.156-2.115 4.001 58.041 13.171 91.556 31.754 117.133 11.185 15.394 24.722 28.932 40.116 40.116 25.576 18.583 59.091 27.753 117.134 31.754-0.2-17.277-0.73-27.408-2.115-36.156-12.291-77.591-73.144-138.445-150.734-150.733z" />
<glyph unicode="&#xe930;" glyph-name="arrow-right" d="M593.058 729.615c12.497 12.497 32.759 12.497 45.257 0l258.987-258.988c6.003-5.999 9.374-14.14 9.374-22.626s-3.371-16.627-9.374-22.626l-258.987-258.987c-12.497-12.497-32.759-12.497-45.257 0-12.493 12.497-12.493 32.755 0 45.252l236.361 236.361-236.361 236.36c-12.493 12.497-12.493 32.758 0 45.255zM117.333 448c0 17.673 14.327 32 32 32h718.080c17.673 0 32-14.327 32-32s-14.327-32-32-32h-718.080c-17.673 0-32 14.327-32 32z" />
<glyph unicode="&#xe931;" glyph-name="city-2" d="M994.002-4.004h-30.003v814c0 14.308-10.102 26.623-24.136 29.42l-601.999 120c-8.81 1.758-17.946-0.528-24.892-6.226s-10.972-14.21-10.972-23.194v-452h-122v210c0 16.568-13.432 30-30 30s-30-13.432-30-30v-210h-30c-16.568 0-30-13.432-30-30.001v-451.999h-30c-16.568 0-30-13.43-30-29.998s13.432-30.003 30-30.003h964.002c16.568 0 29.998 13.435 29.998 30.003s-13.43 29.998-29.998 29.998zM362 893.426l541.998-108.040v-789.389h-181.996v65.019c68.383 13.937 119.997 74.542 119.997 146.98 0 78.996-61.947 210.002-150.001 210.002-87.818 0-150.001-130.924-150.001-210.002 0-72.438 51.62-133.043 120.003-146.98v-65.019h-180.001v451.999c0 16.569-13.432 30.001-30 30.001h-90v415.43zM691.999 117.996c-49.623 0-89.999 40.376-89.999 89.999 0 56.351 47.503 150.001 89.999 150.001 42.839 0 89.999-94.070 89.999-150.001 0-49.623-40.371-89.999-89.999-89.999zM120 417.997h302v-422.001h-302v422.001zM210 297.999h122c16.568 0 30 13.435 30 29.998 0 16.568-13.432 30.003-30 30.003h-122c-16.568 0-30-13.435-30-30.003 0-16.563 13.432-29.998 30-29.998zM332 237.998h-122c-16.568 0-30-13.43-30-29.998s13.432-29.998 30-29.998h122c16.568 0 30 13.43 30 29.998s-13.432 29.998-30 29.998zM332 118.001h-122c-16.568 0-30-13.435-30-29.998 0-16.568 13.432-30.003 30-30.003h122c16.568 0 30 13.435 30 30.003 0 16.563-13.432 29.998-30 29.998zM452 718h120.002c16.568 0 29.998 13.432 29.998 30s-13.43 30-29.998 30h-120.002c-16.568 0-30-13.432-30-30s13.432-30 30-30zM572.001 598c16.568 0 29.998 13.432 29.998 30s-13.43 30-29.998 30h-120.002c-16.568 0-30-13.432-30-30s13.432-30 30-30h120.002zM691.999 598h120.003c16.568 0 29.998 13.432 29.998 30s-13.43 30-29.998 30h-120.003c-16.568 0-29.998-13.432-29.998-30s13.43-30 29.998-30zM691.999 478h120.003c16.568 0 29.998 13.432 29.998 30s-13.43 30-29.998 30h-120.003c-16.568 0-29.998-13.432-29.998-30s13.43-30 29.998-30z" />
<glyph unicode="&#xe932;" glyph-name="tv" d="M953.999 912.004h-883.999c-38.598 0-70-31.402-70-70v-578.483c0-38.6 31.402-70.001 70-70.001h413v-79.273l-333.244-70.902c-16.206-3.451-26.548-19.379-23.1-35.589 3-14.1 15.452-23.762 29.312-23.762 2.068 0 4.17 0.215 6.274 0.66l350.183 74.511 355.42-74.527c16.21-3.4 32.118 6.984 35.517 23.204 3.4 16.215-6.989 32.118-23.209 35.517l-337.152 70.702v79.457h410.998c38.6 0 70.001 31.401 70.001 70.001v578.483c0 38.596-31.401 70-70.001 70zM953.999 253.522h-883.999c-5.514 0-10 4.485-10 9.999v61.553h903.998v-61.553c0-5.514-4.485-9.999-9.999-9.999zM60 385.075v456.929c0 5.514 4.486 10 10 10h883.999c5.514 0 9.999-4.486 9.999-10v-456.929h-903.998z" />
<glyph unicode="&#xe933;" glyph-name="washing-machine" d="M850.002 960h-676.002c-33.084 0-60-26.916-60-60v-934.002c0-16.568 13.432-29.998 30-29.998h736c16.568 0 29.998 13.43 29.998 29.998v934.002c0 33.084-26.916 60-59.996 60zM850.002 900v-198h-676.002v198h676.002zM174-3.999v645.999h676.002v-645.999h-676.002zM624 770h112c16.568 0 29.998 13.432 29.998 30s-13.43 30-29.998 30h-112c-16.568 0-29.998-13.432-29.998-30s13.43-30 29.998-30zM732.539 446.075c0 0.005-0.005 0.010-0.005 0.015-45.184 78.898-129.69 127.91-220.534 127.91-140.056 0-254-113.944-254-254 0-140.058 113.944-253.998 254-253.998 90.844 0 175.35 49.009 220.534 127.908 0 0.005 0.005 0.010 0.005 0.015 21.893 38.231 33.459 81.823 33.459 126.075s-11.566 87.844-33.459 126.075zM690.33 396.477c10.296-24.033 15.672-50.099 15.672-76.477s-5.376-52.444-15.672-76.477c-30.874 11.945-52.332 41.969-52.332 76.477s21.458 64.532 52.332 76.477zM512 125.998c-106.972 0-194 87.030-194 194.002s87.028 194 194 194c56.34 0 109.496-24.69 145.976-66.246-47.693-23.168-79.974-72.084-79.974-127.754 0-55.675 32.282-104.586 79.974-127.754-36.48-41.554-89.636-66.248-145.976-66.248zM272 769.997c16.568 0 30 13.431 30 30s-13.432 30-30 30c-16.568 0-30-13.432-30-30s13.432-30 30-30zM400 769.997c16.568 0 30 13.431 30 30s-13.432 30-30 30c-16.568 0-30-13.432-30-30s13.432-30 30-30z" />
<glyph unicode="&#xe934;" glyph-name="juice" d="M828.319 393.436c11.628 36.25 45.624 62.564 85.683 62.564 16.568 0 29.998 13.432 29.998 30s-13.43 30-29.998 30c-73.011 0-133.97-52.44-147.272-121.622-23.506-2.79-45.937-9.129-66.729-18.478v350.1c0 16.568-13.435 30-30.003 30h-68.413l32.415 144h136.003c16.568 0 29.998 13.432 29.998 30s-13.43 30-29.998 30h-160c-14.034 0-26.189-9.724-29.271-23.412l-40.643-180.588h-162.464c-14.428 90.562-93.064 160-187.624 160-104.766 0-190-85.234-190-190 0-94.56 69.438-173.196 160-187.624v-472.374c0-71.685 58.318-130.002 130-130.002h279.999c36.137 0 69.924 14.884 94.111 40.294 36.987-25.405 81.725-40.294 129.889-40.294 126.822 0 230.001 103.178 230.001 230.001 0 115.159-85.079 210.821-195.681 227.436zM640 696v-120.872c-36.178-2.202-60.769-8.314-82.529-15.134l30.612 136.006h51.917zM491.692 540.988c-16.446-3.040-36.004-4.988-61.692-4.988-55.13 0-82.034 8.966-110.514 18.46-26.452 8.818-53.672 17.878-99.486 20.666v120.874h306.582l-34.89-155.012zM60 726c0 71.682 58.318 130 130 130 61.354 0 112.884-42.738 126.468-100h-126.468c-16.568 0-30-13.432-30-30v-126.468c-57.26 13.584-100 65.112-100 126.468zM290-3.999c-38.598 0-70 31.401-70 70.001v448.978c35.974-2.604 57.748-9.852 80.514-17.44 31.768-10.59 64.616-21.54 129.486-21.54s97.718 10.95 129.488 21.54c22.764 7.59 44.539 14.836 80.512 17.44v-178.299c-46.638-42.122-76.001-103.035-76.001-170.68 0-57.047 20.89-109.307 55.404-149.545-12.933-12.908-30.566-20.454-49.403-20.454h-279.999zM793.999-3.999c-93.737 0-169.999 76.262-169.999 169.999s76.262 169.999 169.999 169.999c93.737 0 169.999-76.262 169.999-169.999s-76.262-169.999-169.999-169.999zM310 135.997c16.568 0 30 13.435 30 30.003s-13.431 29.998-30 29.998c-16.569 0-30-13.43-30-29.998s13.431-30.003 30-30.003zM310 246.001c16.568 0 30 13.43 30 29.998s-13.431 30.003-30 30.003c-16.569 0-30-13.435-30-30.003s13.431-29.998 30-29.998zM400 185.999c16.568 0 30 13.43 30 30.003 0 16.568-13.432 29.998-30 29.998s-30-13.43-30-29.998c0-16.573 13.432-30.003 30-30.003z" />
<glyph unicode="&#xe935;" glyph-name="shield" d="M946.975 682.164l-0.031 0.797c-0.445 9.836-0.742 20.242-0.922 31.82-0.84 56.461-45.722 103.163-102.19 106.32-117.734 6.57-208.809 44.961-286.633 120.812l-0.66 0.633c-25.385 23.273-63.673 23.273-89.064 0l-0.664-0.633c-77.82-75.851-168.898-114.242-286.632-120.82-56.461-3.149-101.351-49.851-102.187-106.32-0.172-11.5-0.477-21.906-0.922-31.812l-0.047-1.852c-2.289-120.054-5.133-269.467 44.851-405.085 27.484-74.578 69.109-139.407 123.71-192.696 62.188-60.687 143.641-108.867 242.093-143.191 3.203-1.121 6.532-2.028 9.922-2.703 4.781-0.957 9.594-1.434 14.405-1.434 4.813 0 9.636 0.476 14.408 1.434 3.389 0.676 6.743 1.592 9.958 2.719 98.34 34.391 179.707 82.591 241.838 143.273 54.579 53.304 96.2 118.144 123.709 192.742 50.171 136.023 47.334 285.715 45.056 405.997zM845.542 296.955c-52.716-142.94-160.333-241.101-328.996-300.083-0.604-0.205-1.244-0.384-1.91-0.517-1.741-0.343-3.513-0.343-5.279 0.005-0.656 0.133-1.297 0.307-1.89 0.512-168.843 58.87-276.531 156.979-329.21 299.924-46.070 125.010-43.461 262.166-41.157 383.165l0.016 0.672c0.468 10.399 0.781 21.289 0.953 33.258 0.375 25.070 20.343 45.812 45.46 47.211 66.625 3.719 125.156 16.593 178.937 39.359 53.711 22.734 101.414 54.781 145.82 97.969 2.258 1.906 5.187 1.914 7.44 0 44.411-43.187 92.114-75.234 145.818-97.969 53.78-22.766 112.312-35.64 178.944-39.359 25.119-1.399 45.087-22.141 45.455-47.219 0.179-12.031 0.492-22.922 0.957-33.25 2.299-121.14 4.844-258.407-41.359-383.678zM511.995 703.18c-140.719 0-255.196-114.484-255.196-255.195 0-140.718 114.477-255.201 255.196-255.201 140.712 0 255.196 114.483 255.196 255.201 0 140.711-114.483 255.195-255.196 255.195zM511.995 252.877c-107.586 0-195.109 87.521-195.109 195.108s87.523 195.109 195.109 195.109c107.576 0 195.102-87.523 195.102-195.109s-87.526-195.108-195.102-195.108zM585.339 527.212l-118.53-118.533-32.172 32.174c-11.735 11.734-30.758 11.734-42.492 0-11.726-11.735-11.726-30.756 0-42.486l53.422-53.422c5.867-5.868 13.555-8.796 21.242-8.796s15.375 2.929 21.242 8.796l139.784 139.783c11.725 11.734 11.725 30.757 0 42.484-11.735 11.742-30.761 11.742-42.496 0z" />
<glyph unicode="&#xe936;" glyph-name="bell-ring" d="M931.999 178.002c16.573 0 30.003 13.43 30.003 29.998 0 236.257-181.965 378.055-420.004 389.274v60.726h90.004c16.568 0 29.998 13.43 29.998 30s-13.43 30-29.998 30h-240.003c-16.57 0-30-13.43-30-30s13.43-30 30-30h90v-60.726c-237.859-11.211-420-152.868-420-389.274 0-16.568 13.43-29.998 30-29.998h270v-62.003h-210c-49.625 0-90-40.371-90-89.999v-60.001c0-16.568 13.43-29.998 30-29.998h839.998c16.573 0 30.003 13.43 30.003 29.998v60.001c0 49.628-40.376 89.999-90.004 89.999h-209.997v62.003h269.998zM512 538c185.39 0 372.383-93.062 388.828-300.002h-777.656c16.445 206.94 203.438 300.002 388.828 300.002zM902.001 25.999v-29.998h-780.001v29.998c0 16.538 13.461 30.003 30 30.003h719.997c16.543 0 30.003-13.466 30.003-30.003zM601.999 115.999h-179.999v62.003h179.999v-62.003zM541.998 868v62c0 16.57-13.43 30-29.998 30-16.57 0-30-13.43-30-30v-62c0-16.57 13.43-30 30-30 16.568 0 29.998 13.43 29.998 30zM670.787 795.57l42.424 42.429c11.72 11.719 11.72 30.711 0 42.429-11.715 11.711-30.71 11.711-42.424 0l-42.429-42.429c-11.709-11.719-11.709-30.711 0-42.429 11.715-11.711 30.71-11.711 42.429 0zM395.641 795.57c11.711 11.719 11.711 30.711 0 42.429l-42.43 42.429c-11.711 11.711-30.711 11.711-42.422 0-11.719-11.719-11.719-30.711 0-42.429l42.422-42.429c11.719-11.711 30.711-11.711 42.43 0z" />
<glyph unicode="&#xe937;" glyph-name="bathtub" d="M1024 330.117c0 53.985-43.924 97.91-97.91 97.91h-805.767v400.163c0 39.575 32.197 71.77 71.772 71.77h65.776c11.111 0 21.71-4.77 29.082-13.083l30.083-33.937c-1.8-8.745-2.747-17.8-2.747-27.069v-39.351c-11.643-4.122-19.999-15.199-19.999-28.253 0-16.567 13.431-29.998 29.998-29.998h248.169c16.568 0 29.998 13.431 29.998 29.998 0 13.054-8.356 24.132-19.999 28.253v39.351c0 73.935-60.15 134.084-134.084 134.084-41.398 0-78.467-18.866-103.083-48.446l-13.443 15.163c-18.75 21.154-45.712 33.283-73.977 33.283h-65.774c-72.656 0-131.767-59.109-131.767-131.764v-404.167c0-1.157 0.082-2.299 0.21-3.425-35.499-14.715-60.539-49.725-60.539-90.481 0-40.678 24.942-75.633 60.328-90.399v-54.216c0-107.372 87.354-194.729 194.727-194.729h17.145v-24.73c0-16.568 13.431-29.998 29.997-29.998s29.998 13.43 29.998 29.998v24.73h359.609v-24.73c0-16.568 13.43-29.998 29.998-29.998 16.563 0 29.998 13.43 29.998 29.998v24.73h17.142c107.372 0 194.729 87.357 194.729 194.729v54.216c35.389 14.766 60.329 49.72 60.329 90.399zM448.371 899.961c40.855 0 74.089-33.237 74.089-74.089v-37.607h-148.179v37.605c0 40.855 33.235 74.092 74.089 74.092zM768.942 50.77h-513.887c-74.291 0-134.732 60.442-134.732 134.733v46.705h783.351v-46.705c0-74.291-60.436-134.733-134.733-134.733zM926.090 292.198h-828.181c-20.906 0-37.915 17.009-37.915 37.919 0 20.905 17.009 37.914 37.915 37.914h828.181c20.905 0 37.914-17.009 37.914-37.914 0-20.91-17.009-37.919-37.914-37.919zM593.674 523.635c-2.555 12.313-12.529 21.912-24.996 23.807-12.375 1.88-24.98-4.497-30.858-15.528-5.883-11.043-4.209-24.996 4.224-34.277 8.412-9.263 22.134-12.37 33.695-7.559 12.974 5.398 20.813 19.71 17.935 33.557zM473.688 523.634c-2.556 12.315-12.531 21.912-25 23.808-12.369 1.88-24.976-4.5-30.853-15.529-5.885-11.043-4.21-24.996 4.219-34.277 8.417-9.267 22.13-12.383 33.697-7.559 12.973 5.407 20.814 19.698 17.936 33.557zM353.688 523.634c-2.556 12.311-12.537 21.914-25 23.808-12.371 1.88-24.976-4.497-30.853-15.528-5.885-11.043-4.21-24.996 4.219-34.277 8.412-9.261 22.134-12.371 33.697-7.559 12.973 5.395 20.81 19.715 17.936 33.557zM594.115 640.724c-1.295 12.481-10.373 23.064-22.559 26.128-12.124 3.049-25.308-1.992-32.236-12.429-6.907-10.412-6.641-24.464 0.85-34.511 7.496-10.055 20.792-14.48 32.809-10.823 13.491 4.104 22.569 17.556 21.135 31.635zM474.125 640.723c-1.296 12.481-10.375 23.062-22.56 26.128-12.135 3.052-25.292-2.002-32.233-12.429-6.943-10.429-6.599-24.436 0.848-34.509 7.441-10.065 20.834-14.491 32.809-10.847 13.489 4.104 22.566 17.601 21.136 31.657zM354.136 640.724c-1.294 12.477-10.379 23.064-22.56 26.128-12.123 3.049-25.308-1.992-32.233-12.429-6.929-10.443-6.609-24.424 0.848-34.509 7.441-10.065 20.834-14.491 32.809-10.847 13.487 4.102 22.564 17.608 21.136 31.657z" />
<glyph unicode="&#xe938;" glyph-name="check" d="M1000.206 792.632c-31.683 31.726-83.13 31.705-114.855 0l-516.93-516.949-229.753 229.751c-31.725 31.725-83.15 31.725-114.875 0s-31.725-83.15 0-114.875l287.179-287.178c15.853-15.853 36.639-23.799 57.427-23.799s41.596 7.926 57.448 23.799l574.359 574.378c31.73 31.703 31.73 83.151 0 114.873z" />
<glyph unicode="&#xe939;" glyph-name="kitchen" d="M994.002 796h-400c-16.568 0-30.003-13.432-30.003-30v-290h-533.999c-16.568 0-30-13.432-30-30.002v-480c0-16.568 13.432-29.998 30-29.998h964.002c16.568 0 29.998 13.43 29.998 29.998v800.002c0 16.568-13.43 30-29.998 30zM624 736h339.999v-260h-339.999v260zM60 416h503.998v-60.001h-503.998v60.001zM60 295.997h343.999v-299.996h-343.999v299.996zM464 295.997h99.999v-299.996h-99.999v299.996zM624-3.999v419.999h339.999v-419.999h-339.999zM30 560h440c16.568 0 30 13.432 30 30v80c0 8.758-3.828 17.078-10.476 22.778l-129.524 111.020v126.202c0 16.568-13.432 30-30 30h-160c-16.568 0-30-13.432-30-30v-126.202l-129.524-111.020c-6.648-5.7-10.476-14.020-10.476-22.778v-80c0-16.568 13.432-30 30-30zM200 900h100v-80h-100v80zM60 656.202l121.098 103.798h137.804l121.098-103.798v-36.202h-380v36.202zM713.999 656c-16.568 0-29.998-13.432-29.998-30v-60c0-16.568 13.43-30 29.998-30s29.998 13.432 29.998 30v60c0 16.568-13.43 30-29.998 30zM713.999 355.999c-16.568 0-29.998-13.43-29.998-29.998v-60.001c0-16.568 13.43-29.998 29.998-29.998s29.998 13.43 29.998 29.998v60.001c0 16.568-13.43 29.998-29.998 29.998zM314 205.998c-16.568 0-30-13.43-30-29.998v-60.001c0-16.568 13.432-29.998 30-29.998s30 13.43 30 29.998v60.001c0 16.568-13.432 29.998-30 29.998z" />
<glyph unicode="&#xe93a;" glyph-name="man" d="M512.004 791.761c46.458 0 84.118 37.662 84.118 84.12s-37.66 84.119-84.118 84.119c-46.458 0-84.118-37.662-84.118-84.119s37.66-84.12 84.118-84.12zM771.545 420.777c-23.721 266.521-150.733 319.683-150.733 319.683s-122.754 73.794-251.976-20.19c-83.774-76.251-103.12-192.651-116.363-305.078-6.698-57.135 82.661-56.446 89.301 0 7.907 67.096 19.192 134.498 52.493 191.902l-0.154-64.772-0.616-311.28v-246.945c0-26.545 19.462-48.096 46.79-48.096 27.309 0 49.479 21.551 49.479 48.096v352.981h43.717c0-82.696 0-271.455 0-354.115 0-57.576 89.285-57.576 89.285 0 0 82.7 0 165.419 0 248.099l3.781 311.891c0.035 29.768 0.075 56.369 0.075 74.87 35.679-58.459 47.462-127.898 55.58-197.010 6.699-56.481 96.039-57.171 89.34-0.035z" />
</font>
</defs>
</svg>
